<?xml version="1.0" standalone="no"?>
<!DOCTYPE svg PUBLIC "-//W3C//DTD SVG 1.1//EN" "http://www.w3.org/Graphics/SVG/1.1/DTD/svg11.dtd">
<svg xmlns="http://www.w3.org/2000/svg">
<metadata>Generated by Fontastic.me</metadata>
<defs>
<font id="fonticon" horiz-adv-x="512">
<font-face font-family="fonticon" units-per-em="512" ascent="480" descent="-32"/>
<missing-glyph horiz-adv-x="512" />

<glyph unicode="&#97;" d="m176 36c-90 51-114 99-100 165c10 48 43 87 46 136c14-26 20-44 21-71c45 55 74 130 76 210c0 0 116-68 123-171c10 21 15 55 5 76c30-21 206-215-23-345c43 84 11 197-64 249c5-22-4-106-37-143c9 62-9 88-9 88c0 0-6-35-29-69c-22-32-37-66-9-125z"/>
<glyph unicode="&#98;" d="m256 476c-121 0-220-99-220-220c0-121 99-220 220-220c121 0 220 99 220 220c0 121-99 220-220 220z m-54-60c8-4 17-8 28-12c11-4 22-6 32-6c8 0 16 2 23 7c7 4 13 7 21 6c9-1 18-4 27-4c11-6 23-14 33-23c-5 0-10-1-16-2c-6-1-12-2-17-3c-6-2-11-4-16-6c-4-3-8-6-10-9c-3-6-6-11-7-15c-3-8-2-20-9-26c-1-1-2-2-3-3c-1-2-1-3-1-5c0-2 1-5 3-9c1-2 1-4 2-8c6 0 12 1 17 5l31-3c7 9 17 9 24 0c3-2 6-6 8-11l-13-9c-3 1-6 3-11 6c-2 1-4 3-6 4c-12 6-36-1-50-2c-2-3-3-7-7-8c-1-2 0-4-1-6c-6-10-8-19-6-30c3-16 11-24 25-24l5 0c6 0 11 0 13 0c3-1 4-2 4-2c-1-4-2-6-1-9c1-7 6-12 6-19c-1-10-4-18-1-27c4-10 9-20 12-29c2-3 4-5 6-5c6-1 13 2 21 11c6 6 10 14 11 22c1 7 6 13 8 21l0 6c1 3 2 6 4 9c1 4 1 9 2 14c4 5 9 9 13 15c2 4 2 7 1 10c0 1-1 1-2 2l-7 3c0 4 7 3 11 2l16 11c0-21-4-42-12-61c-7-20-19-37-33-53c-20-21-44-37-71-46c-28-9-56-11-85-6c5 9 8 19 14 28c0 5 0 9 2 12c5 13 15 17 26 28c11 11 11 25 12 42c0 10-17 17-25 23c-18 12-30 30-55 25c-10-1-12-3-19 3l-2 1l0 1l1 2c3 3-1 7-5 5c-1 0-1 0-2 0c-1 4-4 8-5 13c5-4 8-6 12-8c3-2 5-3 7-3c3-1 4-2 6-1c3 0 5 4 6 10c0 6 0 13-1 21c1 1 2 3 2 4c3 17 12 13 25 18c2 1 2 3 1 4c0 1 0 1 0 1c0 0 0 0 0 0c7 4 11 11 15 18c-3 6-9 11-16 14c-3 5-17 2-20 9c-3 0-4 1-6 1c-12 8-17 23-31 28c-5 1-10 1-16 0c16 13 33 22 52 28z m-113-130c3-5 7-9 11-12c20-20 40-24 66-33c2-1 3-3 6-5c2-2 5-5 8-7c0-1 0-3-1-6c0-3 0-7 0-14c1-17 15-30 19-47c-4-21-4-42-6-63c-21 9-39 21-55 37c-16 16-28 35-37 56c-6 15-10 31-12 47c-1 16-1 31 1 47z"/>
<glyph unicode="&#99;" d="m437 476l-150-150c-11 6-25 4-34-5c-8-8-10-19-7-28c-21 11-46 12-70 2c-46-23-78-70-140-76c5-10 11-20 19-32c26-4 51 4 71 24c-8-24-27-42-52-51c6-9 14-19 23-28c29 10 40 23 12-14c12-12 24-25 40-35c7 25 25 44 51 54c-20-19-28-46-23-76c15-10 29-18 42-25c11 47 43 95 76 140c11 22 9 47-3 70c10-3 21-1 29 7c9 9 11 23 5 34l150 150z"/>
<glyph unicode="&#100;" d="m101 192c0 31 9 59 25 83c16 24 33 48 48 70c24 36 44 74 56 113c4 12 14 19 26 17c13 1 22-6 26-17c13-42 33-79 56-113c15-25 33-45 48-70c17-26 25-55 25-83c-1-43-18-82-45-110c-31-30-71-45-110-45c-42 0-82 17-110 45c-29 31-45 71-45 110z m68-34c1-23 19-39 39-39c22 1 38 19 38 39c0 8-2 14-6 20c-4 6-8 12-12 18c-6 9-11 18-14 28c-1 3-3 5-6 4c-4 1-6 0-7-4c-3-11-8-20-13-28c-4-7-9-12-13-18c-4-6-6-13-6-20z"/>
<glyph unicode="&#101;" d="m446 259l-141 0l18-84l114 0z m-239 0l-141 0l8-84l115 0z m265 24c3-3 4-7 4-11l-13-113c-1-7-7-13-14-13l-137 0c-8 1-13 5-14 12l-22 98c-12 7-28 6-40 1l-22-99c-2-7-7-12-14-12l-138 0c-8 1-13 6-13 13l-13 113c0 4 1 8 4 11l158 82c8 3 15 0 18-7c3-8 1-16-6-20l-100-45l290 0l-100 45c-8 4-10 13-7 20c4 7 12 9 19 7z"/>
<glyph unicode="&#102;" d="m475 37c0 0-88 438-88 438c0 0-110 0-110 0c0 0 4-101 4-101c0 0-50 0-50 0c0 0 4 101 4 101c0 0-110 0-110 0c0 0-88-438-88-438c0 0 183 0 183 0c0 0 4 126 4 126c0 0 64 0 64 0c0 0 4-126 4-126c0 0 183 0 183 0m-188 164c0 0-62 0-62 0c0 0 5 149 5 149c0 0 52 0 52 0c0 0 5-149 5-149"/>
<glyph unicode="&#103;" d="m347 148c11-4 18-13 15-24c-1-7-3-13-6-19c-12-32-33-58-60-76c-30-19-62-29-95-29c-45 1-86 18-116 47c-31 31-48 72-48 112c0 34 11 65 29 90c20 28 47 48 76 59c12 3 23-1 27-11c4-12-2-22-12-26c-24-9-44-24-58-44c-14-21-22-44-22-68c1-33 15-63 37-85c25-23 56-35 87-35c27 1 51 8 72 22c21 15 37 35 45 57c2 5 4 10 5 15c3 12 13 17 24 15z m126-77c5-10 2-21-5-27c-13-12-33-9-40 7l-66 116c-40 0-81-1-120-1c-16 1-29 11-32 26l-27 133l0 0c-2 11 5 24 11 30c7 7 16 11 27 11c8 0 16-3 23-8c15-14 14-26 18-46l79 0c9 0 16-7 18-14c3-16-7-27-21-26l-67 0l10-49l85 0c14 0 25-7 30-18l77-134z m-265 305c-27 1-47 22-47 48c1 26 21 46 47 46c26-1 46-21 46-46c-1-27-22-47-46-48z"/>
<glyph unicode="&#104;" d="m154 50l44 0l98 175l114 0c0 0 65 0 65 31c0 31-65 31-65 31l-114 0l-98 175l-44 0l55-175l-79 0l-50 44l-43 0l35-75l-35-75l43 0l50 44l79 0z"/>
<glyph unicode="&#105;" d="m430 102c0 9-7 16-15 16l-318 0c-8 0-15-7-15-16l0-19c0-9 7-16 15-16l318 0c8 0 15 7 15 16z m-304 213l0 0l0 0c-3 3-7 4-11 4c-9 0-16-7-17-16l0 0l0-150l1 0c0-8 7-15 16-15c0 0 0 0 0 0l0 0l282 0l0 1c0 0 0 0 0 0c8 0 15 6 16 14l1 0l0 2c0 0 0 0 0 0l0 145c0 1 0 2 0 3c0 10-8 17-17 17c-4 0-7-1-10-4l0 0l-1 0c0-1-1-1-1-2l-36-35l-81 81l0 0c-3 3-7 5-12 5c-5 0-9-2-12-5l0 0l-82-81l-34 35c-1 0-1 1-2 1z m248-43l0 0l-1 0z m-229 101c0-17-13-31-31-31c-17 0-31 14-31 31c0 17 14 31 31 31c18 0 31-14 31-31z m282 0c0-17-14-31-31-31c-17 0-31 14-31 31c0 17 14 31 31 31c17 0 31-14 31-31z m-138 41c0-17-14-31-31-31c-17 0-31 14-31 31c0 17 14 31 31 31c17 0 31-14 31-31z"/>
<glyph unicode="&#106;" d="m453 256c0 5-2 9-5 11l0 0l-48 28l28 47l0 1c1 3 1 8-1 12c-2 4-6 6-10 7l0 0l-56 0l0 55l0 0c0 4-3 8-6 10c-4 2-9 2-13 1l0 0l-48-28l-27 46l0 0c-3 4-7 6-11 6c-5 0-9-2-11-6l-1 0l-27-47l-47 27l0 0c-4 2-8 2-12-1c-4-2-7-6-7-10l0 0l0-55l-55 0l0 0c-4 0-8-2-10-6c-2-4-2-9-1-13l0 0l27-46l-48-28l0 0c-3-3-5-7-5-11c0-5 2-9 5-11l0 0l48-28l-28-48l0 0c-1-3-1-8 1-12c2-4 6-6 11-7l0 0l55 0l0-55l0 0c0-4 3-8 6-10c4-2 9-2 13-1l0 0l48 28l27-46l0 0c3-4 7-6 11-6c5 0 9 2 11 6l1 0l27 47l47-27l0 0c4-2 8-2 12 1c4 2 7 6 7 10l0 0l0 55l55 0l0 0c4 0 8 2 10 6c2 4 2 9 1 13l0 0l-27 46l48 28l0 0c3 3 5 7 5 11z"/>
<glyph unicode="&#107;" d="m452 168l0 0l-49 84l0 0c-1 2-4 4-7 4c-3 0-6-2-7-5l-47-82c-1-1-2-3-2-5c0-4 4-8 8-8l12 0c-20-22-47-38-79-44l0 150l47 0c4 0 8 3 8 8l0 0l0 35c0 0 0 0 0 0c0 4-4 8-8 8l-47 0l0 27c20 10 34 30 34 54c0 32-26 59-59 59c-33 0-59-27-59-59c0-24 14-44 34-54l0-27l-47 0c0 0 0 0 0 0c-4 0-8-4-8-8l0 0l0-35l0 0c0-5 4-8 8-8l47 0l0-150c-32 6-59 22-79 44l12 0c4 0 8 4 8 8c0 2-1 3-1 4l0 0l-48 84l0 0c-2 2-4 4-7 4c-4 0-7-2-8-5l-47-82c-1-1-2-3-2-5c0-4 4-8 8-8l22 0c33-58 95-97 167-97c72 0 134 39 167 97l22 0c4 0 8 4 8 8c0 2-1 3-1 4z m-196 192c-18 0-33 15-33 34c0 18 15 33 33 33c18 0 33-15 33-33c0-19-15-34-33-34z"/>
<glyph unicode="&#108;" d="m278 283l0 51c17-4 33-12 47-24l0 0c1-1 2-1 4-1c1 0 3 1 4 2l0 0l22 31l0 0c1 1 1 2 1 4c0 1 0 3-2 4c-20 19-46 30-76 33l0 30l0 0c0 3-3 6-6 6l-23 0c-4 0-6-3-6-6l0-29c-51-5-81-38-81-75c0-51 42-66 81-76l0-58c-25 5-46 18-59 32c0 0-1 0-1 0c0 0 0 1 0 1l0 0c-1 0-2 1-4 1c-2 0-4-1-5-3l0 0l-21-31l0-1c-1-1-1-2-1-3c0-2 0-4 2-5l0 0c20-21 49-36 89-39l0-28c0-3 2-6 6-6l23 0c3 0 6 3 6 6l0 0l0 28c55 6 82 38 82 79c0 52-43 67-82 77z m-35 8c-16 5-26 11-26 22c0 12 9 21 26 24z m35-116l0 50c16-5 28-11 28-24c0-12-9-23-28-26z"/>
<glyph unicode="&#109;" d="m480 358l-1 0c0 11-8 20-19 20l-408 0c-11 0-20-9-20-20l0-204c0-11 9-20 20-20l408 0c11 0 19 9 19 20l0 0l1 0z m-77-28l0 18c0 2 2 4 4 4c0 0 0 0 0 0l0 0l43 0l0 0c0 0 0 0 0 0c2 0 4-2 4-4l0-43c0-2-2-4-4-4c0 0 0 0 0 0l0 0l-17 0c-3 0-4 2-4 4l0 21l-22 0l0 0c0 0 0 0 0 0c-2 0-4 2-4 4z m-294-148l0-18c0-2-2-4-4-4c0 0 0 0 0 0l0 0l-43 0l0 0c0 0 0 0 0 0c-2 0-4 2-4 4l0 43c0 2 2 4 4 4c0 0 0 0 0 0l0 0l17 0c3 0 4-2 4-4l0-21l22 0l0 0c0 0 0 0 0 0c2 0 4-2 4-4z m0 166l0-17c0-3-2-5-4-5l-21 0l0-21l-1 0c0 0 1 0 1 0c0-2-2-4-4-4l-18 0c-2 0-4 2-4 4c0 0 0 0 0 0l0 0l0 43l0 0c0 0 0 0 0 0c0 2 2 4 4 4l43 0c2 0 4-2 4-4c0 0 0 0 0 0z m147-188c-53 0-96 43-96 96c0 53 43 96 96 96c53 0 96-43 96-96c0-53-43-96-96-96z m198 47l0-43l0 0c0 0 0 0 0 0c0-2-2-4-4-4l-43 0c-2 0-4 2-4 4c0 0 0 0 0 0l0 0l0 17c0 3 2 5 4 5l21 0l0 21l1 0c-1 0-1 0-1 0c0 2 2 4 4 4l18 0c2 0 4-2 4-4c0 0 0 0 0 0z m-198 120c-39 0-71-32-71-71c0-15 5-29 13-40l0 0c0 4 2 6 4 8l29 13l11 5c-5 3-9 8-12 14c-2 5-4 11-4 17c0 3 1 7 2 10c4 14 15 24 28 24c14 0 25-10 28-25c1-3 2-6 2-9c0-6-2-11-4-16c-3-6-7-11-12-14l12-6l28-13c2-2 4-4 4-8l0 0c8 11 13 25 13 40c0 39-32 71-71 71z"/>
<glyph unicode="&#110;" d="m168 328c0-12-10-22-22-22c-12 0-22 10-22 22c0 13 10 23 22 23c12 0 22-10 22-23z m214 104c0-24-20-44-45-44c-25 0-45 20-45 44c0 25 20 45 45 45c25 0 45-20 45-45z m-110-14c0-15-12-28-28-28c-15 0-28 13-28 28c0 16 13 28 28 28c16 0 28-12 28-28z m101-285c-7 11-11 25-11 39c0 13 3 25 9 35l-1 0c12 17 18 37 18 59c0 58-47 105-105 105c-58 0-105-47-105-105c0-12 2-23 5-33c2-9 6-18 11-25l-1-1l76-131c8-24 31-41 57-41c34 0 60 27 60 60c0 14-5 27-13 38z m-166 242c0-12-10-22-22-22c-12 0-22 10-22 22c0 13 10 23 22 23c12 0 22-10 22-23z"/>
<glyph unicode="&#111;" d="m243 366c-58 0-104-47-104-106c0-9 7-17 17-17c9 0 17 8 17 17c0 40 31 72 70 72c39 0 71-32 71-72c0-8-2-16-4-23c-5-8-15-25-21-32c-1-1-2-3-3-4c-9-10-19-22-18-48c0-16 0-32-1-37l0-2c-1-5-2-10-23-11c-4 0-8-2-11-5c-4-4-5-8-5-13c0-9 8-16 17-16l1 0c32 1 50 14 55 40c1 8 1 18 1 45c-1 13 2 16 9 24c2 2 3 3 5 5c10 12 24 38 24 38c0 1 1 2 1 3c4 11 7 24 7 36c0 59-47 106-105 106z m24-108c0-8 6-15 14-15c8 0 15 7 15 15c0 29-24 52-53 52c-29 0-52-23-52-52c0-8 6-15 14-15c8 0 14 7 14 15c0 13 11 24 24 24c13 0 24-11 24-24z m-97-52l-70-71c-3-3-5-7-5-11c0-5 2-9 5-12c3-3 7-4 11-4c4 0 8 1 11 4l71 71c3 3 4 7 4 11c0 5-1 9-4 12c-6 6-17 6-23 0z m133 192c0 0-1 0-1 0l0 0l-6 0l0 0c-3-1-6-3-6-7l0 0l0-11l0 0c0-3 3-6 6-6l0 0l6 0l0 0c0 0 1 0 1 0c24 0 44-20 44-44l0 0l0-7l0 0c1-3 3-6 7-6l0 0l11 0l0 0c3 1 6 3 6 6l0 0l0 7l0 0c0 37-31 68-68 68z m114-68c-1 62-52 113-114 113c0 0-1 0-1 0l0 0l-6 0l0 0c-3 0-6-3-6-6l0 0l0-12l0 0c0-3 3-5 6-6l0 0l6 0l0 0c0 0 1 0 1 0c49 0 89-40 90-89l0 0l0-7l0 0c0-3 3-6 6-6l0 0l12 0l0 0c3 1 5 3 5 6l1 0l0 7z"/>
<glyph unicode="&#112;" d="m204 384l60-60c0 0 0 0 1-1l0 0l0 0c2-1 4-2 7-2c5 0 10 4 10 10c0 4-2 7-5 9l-60 60c-2 2-4 3-8 3c-5 0-10-4-10-10c0-4 2-7 5-9z m68-209l0 129l-138 0c-1 0-2-1-2-1l-56 33l0 0c-2 0-4 1-6 1c-8 0-14-6-14-13c0-5 3-9 6-11l0 0l57-33c-2-10-3-22-3-34c0-27 5-50 13-56l-32-56c-2-3-4-7-4-11c0-10 8-18 18-18c6 0 11 3 15 7l0 0l37 65l38-65l0 0c4-4 9-7 14-7c10 0 18 8 18 18c0 4-1 8-3 11l-25 42c13-1 27-1 41-1c9 0 17 0 26 0z m90 14c6 3 11 15 13 32l-83 83l0-116l-31-54c-2-3-4-7-4-11c0-10 8-18 18-18c6 0 11 3 14 7l1 0l37 65l38-65l0 0c3-4 8-7 14-7c10 0 18 8 18 18c0 4-1 8-4 11z m94 110c0 4-2 8-6 10l-20 20l0 21c0 8-4 14-11 18l-26 15l0-1c-2 2-4 3-7 3l-12 22l-26-45l-42-42l71-72c0 6 0 11-1 16l14 14l51 0l0 0l11 11l0 0c2 3 4 6 4 10z"/>
<glyph unicode="&#113;" d="m150 372l32 0l0 26l147 0l0-27l32 0l0 47l0 0c0 7-6 12-13 12l-185 0c0 0 0 0 0 0c-7 0-13-5-13-12c0-1 0-1 0-1z m-23-290l258 0l0 262l-258 0z m51 149c0 2 2 4 4 4l52 0l0 52c0 3 2 4 4 4l37 0c2 0 4-1 4-4l0-52l52 0c2 0 4-2 4-4l0-37c0-1 0-2-1-2c-1-1-2-1-3-1l-52 0l0-53c0-1-1-2-1-3c-1 0-2-1-3-1l-37 0c-1 0-2 1-3 1c0 1-1 2-1 3l0 53l-52 0c-1 0-2 0-3 1c-1 0-1 1-1 2z m-107 113c-11 0-21-9-21-21c0 0 0 0 0 0l0-220c0 0 0-1 0-1c0-11 10-20 21-20l0 0l30 0l0 262z m391-242l0 222l0 0c-1 11-10 20-21 20l-30 0l0-262l30 0l0 0c0 0 0 0 0 0c11 0 21 9 21 20c0 0 0 0 0 0z"/>
<glyph unicode="&#114;" d="m425 267c0 0 0 0 0 0l-164 164l0 0c-5 5-13 5-18 0l-27-27l-58 58c-4 5-11 8-18 8c-14 0-25-12-25-26c0-7 3-14 8-18l57-58l-140-139c-5-5-5-14 0-19l165-164c5-5 13-5 18 0l202 203c5 5 5 13 0 18z m-100-47l-221 0l148 148l111-110z m141-86l-30 53c0 1-1 1-1 1l0 0l0 0c-1 3-4 4-7 4c-2 0-5-1-6-3l0 0l-1-1c0 0 0-1-1-1l-30-52c-5-8-9-18-9-28c0-26 21-48 47-48c26 0 47 22 47 48c0 10-3 20-9 27z"/>
<glyph unicode="&#115;" d="m455 362l-93 93c-5 5-14 5-20 0l-253-254l1 0l-1 0l-35-130l0 0c-2-4 0-10 3-14c5-4 11-5 16-2l0 0l128 34l0 0l0 0l254 254c5 5 5 14 0 19z m-359-265l21 76l56-56z"/>
<glyph unicode="&#116;" d="m178 304c0 28-23 51-52 51c-28 0-51-23-51-51c0-29 23-52 51-52c29 0 52 23 52 52z m208 41c-29 0-52-23-52-52c0-28 23-51 52-51c28 0 51 23 51 51c0 29-23 52-51 52z m-48-109c-3 4-8 9-14 15c-16 20-40 33-68 33c-25 0-47-10-62-27c-9-8-17-15-22-21l-3-4c-16-20-36-43-35-84c0-37 30-68 68-68c21 0 40 10 53 27c13-17 32-27 54-27c37 0 68 31 68 68c0 41-20 64-35 84z m-21 138c0-31-26-57-57-57c-32 0-58 26-58 57c0 32 26 58 58 58c31 0 57-26 57-58z"/>
<glyph unicode="&#118;" d="m155 59c-14 0-32 5-50 23c-24 24-27 47-25 62c2 17 11 34 27 50l150 151c43 42 71 26 83 13c16-15 26-42-14-82l-138-139l-27 27l138 139c22 21 17 26 14 28c-1 2-7 8-29-13l-150-151c-7-7-15-17-16-28c-1-9 4-19 14-30c13-13 23-12 26-11c9 1 19 7 30 18c13 12 167 166 178 178c15 15 24 29 28 42c5 20-1 38-20 57c-19 19-51 40-98-8l-165-165c-8-7-20-7-27 0c-8 8-8 20 0 27l165 165c51 51 106 54 152 8c36-36 36-71 30-94c-6-20-18-39-38-59c-11-12-166-166-178-178c-17-17-34-26-51-29c-3 0-6-1-9-1z"/>
<glyph unicode="&#119;" d="m367 139c0 1-1 2-1 3l0 0l-15 37c0 0 0 0 0 0l-1 0l0 0c0 2-2 4-5 4c-2 0-3-1-4-2l0 0c-6-7-18-15-36-15c-20 0-29 14-53 14c-6 0-14-1-20-4c14 10 26 27 26 46c0 3 0 6 0 8l46 0l0 0c3 0 6 3 6 6l0 22l0 0c0 3-3 5-6 5l0 0l-59 0c-10 15-20 28-20 49c0 23 19 38 43 38c19 0 35-12 42-29c1-2 3-3 5-3c1 0 2 0 3 0c0 0 0 0 0 0l36 22l0 0c2 1 3 3 3 5c0 1 0 2-1 3l0 0c-17 34-49 50-95 50c-49 0-100-33-100-85c0-20 8-36 19-50l-28 0l0 0c0 0-1 0-1 0c-3 0-6-2-6-6l0-22l1 0c0-3 2-5 5-5c0 0 1 0 1 0l0 0l49 0c3-7 5-14 5-22c0-21-19-39-44-51c0 0 0 0 0 0c0 0-1-1-1-1l0 0c-2-1-3-3-3-5c0-1 0-1 1-2l0 0l0 0c0 0 0 0 0 0l14-30c0 0 0 0 0 0l0 0l0 0c1-2 3-3 5-3c1 0 2 0 3 0l0 0c16 9 33 16 48 16c25 0 38-18 74-18c30 0 50 9 61 20l0 0c2 2 3 3 3 5z"/>
<glyph unicode="&#120;" d="m199 97c0-16-14-30-30-30c-17 0-30 14-30 30c0 17 13 30 30 30c16 0 30-13 30-30z m212 0c0-16-14-30-31-30c-16 0-30 14-30 30c0 17 14 30 30 30c17 0 31-13 31-30z m-35 132c7 0 13 4 16 10l0 0l75 130l0 0c1 2 2 5 2 7c0 10-8 18-18 18l-274 0l0 33c0 10-8 18-18 18l-97 0l0 0c0 0-1 0-1 0c-9 0-16-7-17-16l-1 0l0-17c0-10 8-18 18-18c0 0 1 0 1 0l0 0l64 0l0-224l0 0c0-10 8-17 17-17c0 0 0 0 0 0l304 0l0 0c8 1 15 7 16 15l0 0l0 2c0 0 0 1 0 1c0 0 0 0 0 0l0 15c0 0 0 0 0 0c0 9-7 17-16 18l0 0l-270 0l0 25l199 0z"/>
<glyph unicode="&#121;" d="m420 195c-4 0-8-2-12-3l-35 60l35 60c2-1 4-1 7-1c15 0 27 12 27 27c0 16-12 28-27 28c-10 0-18-5-23-12l-78 0l-36 62c3 5 5 10 5 15c0 16-13 28-28 28c-15 0-28-12-28-28c0-5 2-10 5-14l-37-63l-79 0c-5 9-14 14-24 14c-15 0-28-12-28-27c0-15 13-28 28-28c4 0 8 2 12 3l35-60l-35-60c-2 1-4 1-7 1c-15 0-27-12-27-28c0-15 12-27 27-27c10 0 18 5 23 12l78 0l35-60c-2-4-4-9-4-13c0-16 13-28 28-28c15 0 28 12 28 28c0 4-2 8-4 12l36 61l79 0c5-9 14-15 24-15c15 0 28 13 28 28c0 15-13 28-28 28z"/>
<glyph unicode="&#122;" d="m256 458l0 1l-172-100l0 0l0-118l0 0c2-97 77-178 172-188c96 10 170 91 172 188l0 118l0 0z m0-353l0 142l-121 0l0 82l121 70l0-152l121 0l0-6l0 0c-2-69-54-127-121-136z"/>
<glyph unicode="&#65;" d="m471 97l0 0l-37 65l14 0l0 0c3 0 6 3 6 6c0 1 0 1-1 2l0 0l-34 60l8 0l0 0c2 0 4 2 4 4c0 1 0 1 0 2l0 0l-51 87l0 0c-1 2-3 4-6 4c-2 0-5-2-6-4l0 0l-50-87l0 0c0-1 0-1 0-2c0-2 1-4 4-4l0 0l8 0l-34-60l0 0c-1-1-1-1-1-2c0-3 2-6 5-6l0 0l15 0l-11-19l-43 75l21 0l0 0c4 0 8 3 8 8c0 1 0 2-1 3l0 1l-49 84l12 0l0 0c3 0 6 2 6 5c0 1 0 2-1 3l0 0l-71 123l0 0c-1 3-4 5-8 5c-4 0-7-2-9-5l-71-123l0 0c0-1 0-2 0-3c0-3 2-5 5-5l0 0l12 0l-48-83c-1-2-2-3-2-5c0-5 4-8 8-8l0 0l21 0l-52-90c-1-2-2-4-2-6c0-5 5-9 10-9l0 0l101 0l0-44c0-4 4-7 8-7l37 0c5 0 8 3 8 7l0 44l83 0l-9-16l0 0c-1-1-1-2-1-3c0-4 3-7 7-7l0 0l72 0l0-20c0-3 2-5 5-5l27 0c3 0 5 2 5 5l0 20l72 0l0 0c4 0 7 3 7 7c0 1-1 2-1 3z"/>
<glyph unicode="&#66;" d="m421 389c0 6-4 10-9 10l-42 0l0 36c0 0 0 1 0 1c0 8-6 15-15 15c0 0 0 0 0 0l0 0l-200 0l0 0c-7-1-13-7-13-15c0 0 0-1 0-1l0-36l-42 0c-5 0-9-4-9-9l0 0l0 0l0-1c0 0 0 0 0 0l0-133c0 0 0 0 0 0c0 0 0 0 0 0l0 0l0 0c0-5 4-10 9-10l43 0c7-46 42-84 87-94l0-65l-51 0c-7 0-12-6-12-13c0-7 5-13 12-13l0 0l154 0l0 0c7 0 12 6 12 13c0 7-5 13-12 13l-52 0l0 65c46 10 81 48 88 94l43 0c5 0 9 4 9 10l0 0l0 133z m-279-117l-26 0l0 102l26 0z m254 0l-26 0l0 102l26 0z"/>
<glyph unicode="&#67;" d="m314 157l0-61c0-12-4-19-11-19c-5 0-9 2-13 6l0 86c4 5 8 7 13 7c7 0 11-7 11-19z m97-1l0-13l-26 0l0 13c0 13 4 20 13 20c8 0 13-7 13-20z m-276 63l30 0l0 26l-89 0l0-26l30 0l0-163l29 0z m82-163l25 0l0 141l-25 0l0-108c-6-8-11-12-16-12c-4 0-6 2-6 6c-1 1-1 4-1 10l0 104l-25 0l0-112c0-9 1-16 2-20c2-7 8-11 17-11c9 0 19 6 29 17z m122 42l0 57c0 13 0 23-2 28c-3 11-10 16-20 16c-10 0-19-5-27-16l0 62l-25 0l0-189l25 0l0 14c9-11 17-16 27-16c10 0 17 5 20 16c2 5 2 14 2 28z m97 3l0 4l-26 0c0-10 0-16-1-18c-1-6-5-10-11-10c-9 0-13 7-13 20l0 25l51 0l0 29c0 15-3 26-8 33c-7 10-17 15-30 15c-13 0-23-5-31-15c-5-7-8-18-8-33l0-49c0-15 3-26 9-33c7-10 17-15 31-15c13 0 24 5 30 15c4 5 6 10 6 16c1 1 1 7 1 16z m-174 261l0 60c0 13-4 20-12 20c-8 0-12-7-12-20l0-60c0-13 4-20 12-20c8 0 12 7 12 20z m206-215c0-44-3-77-8-100c-2-11-8-20-16-28c-9-7-18-12-29-13c-35-4-88-6-159-6c-71 0-124 2-159 6c-11 1-20 6-29 13c-8 8-14 17-16 28c-5 22-8 55-8 100c0 45 3 78 8 100c2 12 8 21 16 29c9 7 18 12 30 13c35 4 87 6 158 6c71 0 124-2 159-6c11-1 20-6 29-13c8-8 14-17 16-29c5-21 8-54 8-100z m-285 365l29 0l-35-114l0-77l-28 0l0 77c-3 14-9 34-18 61c-7 19-13 37-18 53l30 0l20-75z m105-95l0-50c0-16-2-27-8-34c-7-10-17-14-30-14c-13 0-23 4-30 14c-5 7-8 19-8 34l0 50c0 15 3 26 8 33c7 10 17 15 30 15c13 0 23-5 30-15c6-7 8-18 8-33z m96 46l0-142l-26 0l0 15c-10-12-20-17-29-17c-9 0-15 3-17 10c-2 5-3 12-3 22l0 112l26 0l0-105c0-6 1-9 1-10c0-4 2-6 6-6c5 0 10 4 16 12l0 109z"/>
<glyph unicode="&#68;" d="m384 378l0-29c0-3-1-5-2-7c-2-2-4-3-7-3l-48 0c-4-27-17-49-37-66c-20-18-46-28-79-32c32-34 76-85 132-153c2-3 3-6 1-10c-2-3-5-5-9-5l-55 0c-3 0-6 1-7 4c-59 69-106 124-143 163c-1 1-2 4-2 6l0 36c0 3 1 5 2 7c2 2 4 2 7 2l32 0c25 0 45 5 61 13c15 8 25 20 29 35l-122 0c-3 0-5 1-7 3c-1 2-2 4-2 7l0 29c0 2 1 5 2 6c2 2 4 3 7 3l118 0c-11 21-37 32-77 32l-41 0c-3 0-5 1-7 3c-1 2-2 4-2 6l0 38c0 3 1 5 2 7c2 2 4 2 7 2l238 0c2 0 4 0 6-2c2-2 3-4 3-7l0-29c0-3-1-5-3-6c-2-2-4-3-6-3l-67 0c9-12 15-25 18-41l49 0c3 0 5-1 7-3c1-1 2-4 2-6z"/>
<glyph unicode="&#69;" d="m218 486c7 0 10-3 10-10c0 0 0-440 0-440c0-7-3-10-10-10c0 0-23 0-23 0c-7 0-11 3-11 10c0 0 0 225 0 225c0 0-90 0-90 0c-5 0-10 1-14 3c-4 1-9 3-13 6c0 0-62 42-62 42c-3 2-5 5-5 9c0 3 2 6 5 8c0 0 62 42 62 42c4 3 9 5 13 6c3 1 7 2 14 2c0 0 90 0 90 0c0 0 0 97 0 97c0 7 4 10 11 10c0 0 23 0 23 0m289-106c3-2 5-5 5-8c0-4-2-6-5-8c0 0-61-42-61-42c-7-5-11-7-13-7c-5-2-9-3-14-3c0 0-155 0-155 0c0 0-20 118-20 118c0 0 175 0 175 0c6 0 11-1 14-2c4-1 8-3 13-6c0 0 61-42 61-42"/>
<glyph unicode="&#70;" d="m486 276c7 0 13-2 18-6c5-4 8-9 8-14c0-14-9-20-26-20c0 0-24 0-24 0c-17 0-26 6-26 20c0 5 3 10 8 14c5 4 11 6 18 6c0 0 24 0 24 0m-230 120c39 0 72-13 100-41c27-27 41-60 41-99c0-40-14-73-41-100c-28-28-61-41-100-41c-39 0-72 13-99 41c-28 27-41 60-41 100c0 39 13 72 41 99c27 28 60 41 99 41m3-242c0 0 0 204 0 204c-29 0-54-10-75-30c-20-20-30-44-30-72c0-29 10-53 30-73c21-19 46-29 75-29m-182 102c0-14-9-20-26-20c0 0-25 0-25 0c-17 0-26 6-26 20c0 5 3 10 8 14c5 4 11 6 18 6c0 0 25 0 25 0c7 0 13-2 18-6c5-4 8-9 8-14m179 179c-5 0-10 3-14 8c-4 5-6 11-6 18c0 0 0 25 0 25c0 7 2 13 6 18c4 5 9 8 14 8c5 0 10-3 14-8c4-5 6-11 6-18c0 0 0-25 0-25c0-7-2-13-6-18c-4-5-9-8-14-8m0-358c5 0 10-3 14-8c4-5 6-11 6-18c0 0 0-25 0-25c0-7-2-13-6-18c-4-5-9-8-14-8c-5 0-10 3-14 8c-4 5-6 11-6 18c0 0 0 25 0 25c0 7 2 13 6 18c4 5 9 8 14 8m188 338c0 0-17-18-17-18c-12-11-23-13-33-4c-9 10-8 21 4 33c2 2 8 8 18 18c12 12 23 13 33 3c9-9 8-20-5-32m-358-301c5 5 10 8 17 9c6 1 11-1 15-5c4-4 6-10 5-16c-1-7-4-12-8-17c0 0-19-18-19-18c-5-5-10-8-17-9c-6 0-11 1-14 5c-11 10-10 21 3 33c2 2 8 7 18 18m10 330c0 0 19-18 19-18c12-12 13-23 3-33c-4-3-9-5-15-4c-7 1-12 4-17 8c-10 11-16 16-18 18c-5 5-8 10-9 17c0 6 1 11 6 15c3 5 8 6 14 6c7-1 12-4 17-9m302-359c-12 12-13 23-4 33c10 9 21 8 33-4c0 0 17-18 17-18c13-12 14-23 5-33c-10-9-21-8-33 4c-10 10-16 16-18 18"/>
<glyph unicode="&#71;" d="m68 350c-6-5-12-7-19-6c-7 1-12 4-17 9c-5 5-7 11-6 19c0 7 3 13 9 18c16 14 30 24 40 31c11 7 26 14 46 20c20 7 42 8 66 2c24-5 51-16 81-33c30-17 57-27 80-28c23-1 40 2 51 9c11 6 26 18 45 34c13 10 25 9 36-3c11-14 10-26-3-37c-41-38-81-56-120-56c-34 0-72 12-113 36c-23 13-44 21-61 26c-18 5-33 5-48 0c-14-5-25-10-33-15c-8-5-19-14-34-26m376-56c13 11 25 10 36-3c11-14 10-26-3-37c-13-12-25-21-33-27c-9-7-21-13-37-20c-16-6-33-9-50-9c-32 0-70 12-113 35c-23 13-44 22-61 27c-18 5-33 5-48 0c-14-5-25-10-33-15c-8-5-19-14-34-26c-5-5-11-7-18-6c-8 1-13 4-18 9c-11 14-10 26 3 37c13 12 23 20 31 26c7 5 19 12 35 19c16 8 31 12 45 12c14 0 32-2 54-8c22-5 44-15 68-28c24-13 44-22 61-27c18-5 33-5 48 0c14 5 25 10 33 15c8 5 19 14 34 26m0-131c13 11 25 10 36-3c5-5 7-11 6-19c0-7-3-13-9-18c-13-12-25-21-33-27c-9-7-21-13-37-20c-16-6-33-9-50-9c-32 0-70 12-113 35c-23 13-44 22-61 27c-18 5-33 5-48 1c-14-5-25-10-34-15c-8-6-19-15-33-27c-5-5-11-7-18-6c-8 1-13 4-18 9c-11 14-10 26 3 37c13 12 23 20 31 26c7 5 19 12 35 19c16 8 31 11 45 12c14 0 32-2 54-8c22-5 44-15 68-29c24-12 44-21 61-26c18-5 33-5 48 0c14 5 25 10 33 15c8 5 19 14 34 26"/>
<glyph unicode="&#72;" d="m478 197c7-6 10-11 8-17c-1-6-6-10-14-12c0 0-40-11-40-11c-8-2-15-7-20-15c-6-7-8-15-7-24c0 0 2-42 2-42c0-8-2-14-8-18c-5-3-12-3-19 0c0 0-44 23-44 23c-8 4-16 5-24 2c-9-3-15-8-18-15c0 0-24-45-24-45c-4-8-9-12-14-12c-6-1-12 3-17 9c0 0-26 40-26 40c-12 17-27 20-45 11c0 0-62-36-62-36c-8-5-13-6-17-3c-3 2-4 8-1 16c0 0 28 84 28 84c3 8 2 16-2 23c-4 6-11 10-19 11c0 0-54 6-54 6c-8 1-13 4-15 9c-2 5 1 10 8 16c0 0 44 39 44 39c7 5 10 12 10 21c0 8-3 15-10 21c0 0-44 38-44 38c-7 6-10 12-8 17c1 6 6 10 14 12c0 0 40 11 40 11c8 2 15 7 21 15c6 7 8 15 8 24c0 0-3 42-3 42c0 9 2 15 7 19c5 3 12 3 19 0c0 0 41-20 41-20c8-3 17-4 25-1c9 3 15 8 19 16c0 0 24 41 24 41c4 7 9 11 15 10c6 0 11-4 15-12c0 0 26-44 26-44c4-7 10-12 18-14c8-3 15-2 23 3c0 0 70 43 70 43c7 5 12 6 15 3c3-2 3-8 0-16c0 0-31-87-31-87c-3-8-3-15 1-21c4-7 11-10 20-11c0 0 58-6 58-6c9-1 14-3 15-8c2-5-1-10-8-16c0 0-44-38-44-38c-6-6-9-13-9-21c0-9 3-16 9-21c0 0 44-39 44-39m-196-47c0 0 0 53 0 53c0 0-52 0-52 0c0 0 0-53 0-53c0 0 52 0 52 0m0 81c0 0 0 134 0 134c0 0-52 0-52 0c0 0 0-134 0-134c0 0 52 0 52 0"/>
<glyph unicode="&#73;" d="m435 384c0 0 0-26 0-26c0 0-357 0-357 0c0 0 0 26 0 26c0 8 3 13 7 18c5 4 9 7 13 8c0 0 6 0 6 0c0 0 305 0 305 0c2 0 5-1 7-1c3 0 7-3 12-7c4-5 7-10 7-18m-76 77c2 0 4 0 7-1c3 0 7-2 11-7c5-4 8-10 8-18c0 0-255 0-255 0c0 8 2 14 6 18c5 5 9 7 13 8c0 0 6 0 6 0c0 0 204 0 204 0m127-103c12-11 18-18 19-23c3-6 3-16 0-28c0 0-38-230-38-230c-2-8-5-14-11-18c-5-5-10-7-14-8c0 0-7 0-7 0c0 0-357 0-357 0c-17 0-28 9-30 26c-2 9-9 47-20 114c-11 67-18 106-20 116c-4 8-4 15-2 23c3 7 4 12 5 13c1 1 5 5 11 10c0 0 5 5 5 5c0 0 16 16 16 16c0 0 0-41 0-41c0 0 428 0 428 0c0 0 0 41 0 41c0 0 15-16 15-16m-127-138c0 0 0 51 0 51c0 0-36 0-36 0c0 0 0-41 0-41c0 0-133 0-133 0c0 0 0 41 0 41c0 0-35 0-35 0c0 0 0-51 0-51c0-17 8-25 25-25c0 0 153 0 153 0c8 0 14 2 18 6c5 4 7 8 7 12c0 0 1 7 1 7"/>
<glyph unicode="&#74;" d="m394 256c0-33 6-60 19-80c12-21 25-31 40-31c0 0 33 0 33 0c-10-15-21-26-32-33c-12-6-32-10-61-10c0 0-256 0-256 0c-44 0-78 16-102 49c-23 32-35 67-35 105c0 38 12 73 35 105c24 32 58 49 102 49c0 0 256 0 256 0c29 0 49-4 61-10c11-7 22-18 32-33c0 0-33 0-33 0c-15 0-28-11-40-31c-13-21-19-47-19-80m-69-46c3 4 2 8-4 13c-47 46-77 74-92 84c-5 4-10 6-13 7c-3 1-6 0-9-3c-3-2-5-4-5-6c-1-1-2-4-4-9c0 0-12-29-12-29c0 0-75 34-75 34c-9 4-15 4-18 0c-3-5-1-9 4-14c47-45 77-73 92-83c12-6 19-8 22-6c3 2 6 7 9 16c0 0 12 30 12 30c0 0 75-35 75-35c9-4 15-4 18 1m158 98c8 0 14-4 20-14c6-9 9-21 9-36c0-15-3-27-9-37c-6-9-12-14-20-14c0 0-19 0-19 0c-8 0-14 5-20 14c-5 10-8 22-8 37c0 15 3 27 8 36c6 10 12 14 20 14c0 0 19 0 19 0"/>
<glyph unicode="&#75;" d="m207 274c19 0 33-6 43-20c10-14 16-27 16-41c0 0 0-20 0-20c0-20-3-36-10-50c-7-13-15-23-26-29c-10-6-20-11-30-14c-10-3-18-5-25-6c0 0-10 0-10 0c0 0-165 0-165 0c0 0 0 331 0 331c0 0 165 0 165 0c26 0 48-8 65-23c17-15 25-36 25-65c0-17-4-31-12-42c-8-10-16-16-24-19c0 0-12-2-12-2m-134 93c0 0 0-74 0-74c0 0 87 0 87 0c9 0 15 2 20 8c5 5 7 15 7 31c0 10-1 18-5 24c-4 6-8 9-12 10c0 0-5 1-5 1c0 0-92 0-92 0m88-213c25 0 38 14 38 43c0 13-3 24-9 31c-5 8-10 12-16 13c0 0-9 1-9 1c0 0-92 0-92 0c0 0 0-88 0-88c0 0 88 0 88 0m239 187c24 0 44-5 61-15c16-10 28-22 34-36c7-14 11-28 14-42c3-14 4-25 3-35c0 0-1-15-1-15c0 0-164 0-164 0c0-19 5-33 14-42c9-10 19-15 28-15c0 0 13-1 13-1c16 0 28 3 37 9c8 6 13 11 14 17c0 0 1 9 1 9c0 0 55 0 55 0c0-28-9-49-27-63c-18-15-36-22-54-23c0 0-28-1-28-1c-24 0-45 4-62 13c-17 8-29 19-37 32c-7 12-13 25-17 37c-4 12-5 23-5 31c0 0 0 13 0 13c0 3 0 8 0 14c0 6 3 16 7 31c5 14 11 27 19 38c7 11 20 21 37 30c16 9 36 14 58 14m51-99c0 1-1 3-1 5c0 3-1 7-3 13c-2 5-4 11-7 15c-2 4-7 8-14 12c-7 4-15 6-24 6c-14 0-26-4-35-13c-10-8-16-17-18-26c0 0-3-12-3-12c0 0 105 0 105 0m13 164c0 0 0-40 0-40c0 0-131 0-131 0c0 0 0 40 0 40c0 0 131 0 131 0"/>
<glyph unicode="&#76;" d="m375 295c5-12 12-21 20-27c9-6 16-10 23-11c8-1 15-5 23-12c8-6 14-16 18-28c7-21-5-49-38-82c-33-34-76-61-129-81c-56-20-107-27-152-23c-45 5-72 17-79 39c-7 18-5 37 6 56c11 20 14 39 9 57c-19 66-27 117-24 154c3 37 22 70 58 98c9 8 14 16 15 26c1 10 6 17 14 20c9 3 16 1 24-6c7-7 17-10 29-9c45 1 78-11 101-34c23-23 50-69 82-137m-95-207c30 11 57 25 81 44c24 18 41 33 51 46c10 13 14 22 13 26c-3 7-11 13-25 17c-14 3-35 4-63 0c-29-3-61-11-96-24c-35-13-65-28-89-45c-24-17-40-31-48-43c-8-12-11-21-9-27c2-4 10-8 26-11c16-4 39-4 69-2c30 2 60 8 90 19m-32 89c3 1 6 2 11 4c4 1 7 3 8 3c0 0 1-1 1-1c5-13 2-28-8-42c-11-15-26-26-46-32c-33-13-59-10-78 7c27 23 64 43 112 61"/>
<glyph unicode="&#77;" d="m256 502c68 0 126-24 174-72c48-48 72-106 72-174c0-68-24-125-72-174c-48-48-106-72-174-72c-68 0-125 24-174 72c-48 49-72 106-72 174c0 68 24 126 72 174c49 48 106 72 174 72m132-113l0 0m-318-133c0-45 14-84 42-118c0 0 263 263 263 263c-34 28-74 42-119 42c-52 0-96-18-132-54c-36-37-54-81-54-133m54-132l0 0m132-54c52 0 96 18 133 54c36 37 54 81 54 132c0 44-14 84-42 119c0 0-263-263-263-263c34-28 73-42 118-42"/>
<glyph unicode="&#78;" d="m426 381c6-3 9-8 9-14c0 0 0-288 0-288c0-5-2-9-6-13c-4-4-9-6-14-6c-16 0-24 7-24 19c0 0 0 267 0 267c0 4-2 7-6 9c0 0-207 111-207 111c-11 3-22 2-35-5c-15-7-24-15-28-23c0 0 209-116 209-116c6-3 9-8 9-15c0 0 0-281 0-281c0-8-3-13-9-15c-2-1-5-2-9-2c-4 0-8 1-10 2c-3 2-37 24-103 65c-66 42-103 64-109 67c-9 7-13 12-13 18c0 0-3 268-3 268c0 10 2 18 7 27c10 15 27 29 52 39c25 11 45 12 60 5c0 0 230-119 230-119"/>
<glyph unicode="&#79;" d="m256 307c22 0 40-7 55-22c14-15 22-33 22-55c0-21-8-39-23-54c-15-15-33-22-54-22c-21 0-39 7-54 22c-15 15-23 33-23 54c0 22 8 40 23 55c15 15 33 22 54 22m205 77c14 0 26-5 36-15c10-10 15-22 15-36c0 0 0-231 0-231c0-13-5-25-15-35c-10-11-22-16-36-16c0 0-410 0-410 0c-13 0-25 5-36 16c-10 10-15 22-15 35c0 0 0 231 0 231c0 14 5 26 15 36c11 10 23 15 36 15c0 0 62 0 62 0c9 0 16 5 20 15c0 0 15 47 15 47c4 10 11 15 21 15c0 0 174 0 174 0c10 0 17-5 21-15c0 0 15-47 15-47c4-10 11-15 20-15c0 0 62 0 62 0m-205-282c36 0 66 13 91 38c25 25 37 55 37 90c0 36-12 66-37 91c-25 25-55 37-91 37c-35 0-66-12-91-37c-25-25-37-55-37-91c0-35 12-65 37-90c25-25 56-38 91-38m187 195c5 0 9 2 13 6c3 3 5 8 5 12c0 5-2 9-5 13c-4 3-8 5-13 5c-12 0-18-6-18-18c0-5 2-10 6-13c3-3 8-5 12-5"/>
<glyph unicode="&#80;" d="m367 176c6-6 9-13 9-22c0-8-3-16-9-22c-6-5-13-8-22-8c-8 0-16 3-22 8c0 0-68 78-68 78c0 0-67-78-67-78c-6-5-14-8-22-8c-9 0-16 3-22 8c-6 6-8 14-8 22c0 9 2 16 8 22c0 0 71 80 71 80c0 0-71 81-71 81c-6 6-8 13-8 22c0 8 2 16 8 22c6 5 13 8 22 8c8 0 16-3 22-8c0 0 67-78 67-78c0 0 68 78 68 78c6 5 14 8 22 8c9 0 16-3 22-8c6-6 9-14 9-22c0-9-3-16-9-22c0 0-71-81-71-81c0 0 71-80 71-80"/>
<glyph unicode="&#81;" d="m256 471c59 0 110-21 152-63c42-42 63-93 63-152c0-59-21-110-63-152c-42-42-93-63-152-63c-59 0-110 21-152 63c-42 42-63 93-63 152c0 59 21 110 63 152c42 42 93 63 152 63m44-215c0 0 79 79 79 79c0 0-44 44-44 44c0 0-79-78-79-78c0 0-78 78-78 78c0 0-45-44-45-44c0 0 79-79 79-79c0 0-79-78-79-78c0 0 45-44 45-44c0 0 78 78 78 78c0 0 79-78 79-78c0 0 44 44 44 44c0 0-79 78-79 78"/>
<glyph unicode="&#82;" d="m410 461c14 0 26-5 36-15c10-10 15-22 15-36c0 0 0-308 0-308c0-13-5-25-15-35c-10-11-22-16-36-16c0 0-308 0-308 0c-13 0-25 5-35 16c-11 10-16 22-16 35c0 0 0 308 0 308c0 14 5 26 16 36c10 10 22 15 35 15c0 0 308 0 308 0m-75-327c0 0 44 44 44 44c0 0-79 78-79 78c0 0 79 79 79 79c0 0-44 44-44 44c0 0-79-78-79-78c0 0-78 78-78 78c0 0-45-44-45-44c0 0 79-79 79-79c0 0-79-78-79-78c0 0 45-44 45-44c0 0 78 78 78 78c0 0 79-78 79-78"/>
<glyph unicode="&#83;" d="m253 502c68 0 126-23 174-70c48-47 73-104 75-172c0-68-23-127-70-175c-47-48-105-73-173-75c-68 0-126 23-175 70c-48 48-73 105-74 173c-1 68 22 127 69 175c48 49 106 73 174 74m6-440c53 1 99 21 136 59c38 38 56 84 56 138c-1 54-21 100-59 137c-39 37-85 55-138 55c-54-1-100-21-137-59c-37-38-55-84-55-138c1-54 21-100 59-137c38-37 84-55 138-55m-63 153c13 0 23 7 29 21c0 0 29-16 29-16c-7-12-15-21-26-26c-11-7-23-11-35-11c-22 0-39 7-52 20c-13 12-19 30-19 53c0 23 6 41 19 54c13 13 30 20 49 20c30 0 51-12 64-34c0 0-32-16-32-16c-3 6-7 11-12 14c-5 3-10 4-14 4c-21 0-31-14-31-42c0-13 2-23 7-30c6-7 14-11 24-11m136 0c14 0 24 7 28 21c0 0 30-16 30-16c-6-11-15-20-25-26c-11-7-23-11-36-11c-22 0-39 7-51 20c-13 12-20 30-20 53c0 22 7 40 20 54c12 13 29 20 50 20c28 0 49-12 61-34c0 0-31-16-31-16c-3 6-7 11-12 14c-5 3-9 4-14 4c-21 0-32-14-32-42c0-12 3-22 8-30c6-7 14-11 24-11"/>
<glyph unicode="&#84;" d="m356 327c4 0 8-2 11-4c2-3 4-6 4-10c0 0 0-181 0-181c0-3-2-6-4-9c-3-3-7-4-11-4c0 0-133 0-133 0c-4 0-7 1-10 4c-3 3-4 6-4 9c0 0 0 53 0 53c0 0-53 0-53 0c-4 0-7 2-10 4c-2 3-4 7-4 11c0 0 0 180 0 180c0 4 1 7 3 9c2 2 5 4 10 5c0 0 135 0 135 0c3 0 6-1 9-4c3-3 4-6 4-10c0 0 0-53 0-53c0 0 53 0 53 0m-135 0c0 0 55 0 55 0c0 0 0 40 0 40c0 0-107 0-107 0c0 0 0-154 0-154c0 0 40 0 40 0c0 0 0 100 0 100c0 4 1 7 4 10c1 1 4 2 8 4m122-182c0 0 0 155 0 155c0 0-107 0-107 0c0 0 0-155 0-155c0 0 107 0 107 0m-87 357c68 0 126-24 174-72c48-48 72-106 72-174c0-68-24-125-72-174c-48-48-106-72-174-72c-68 0-125 24-174 72c-48 49-72 106-72 174c0 68 24 126 72 174c49 48 106 72 174 72m0-447c55 0 103 20 142 59c39 39 59 87 59 142c0 56-20 103-59 142c-39 39-87 59-142 59c-55 0-103-20-142-59c-39-39-59-86-59-142c0-55 20-103 59-142c39-39 87-59 142-59"/>
<glyph unicode="&#85;" d="m256 398c37 0 63-13 78-41c16-28 23-61 23-101c0-39-7-72-23-100c-15-27-41-41-78-41c-37 0-63 14-78 41c-16 28-23 61-23 100c0 40 7 73 23 101c15 28 41 41 78 41m-44-142c0-6 1-17 2-34c0 0 54 100 54 100c5 8 4 15-3 21c-4 1-7 2-9 2c-29 0-44-30-44-89m44-88c29 0 44 29 44 88c0 14-1 28-3 43c0 0-60-104-60-104c-8-11-6-19 6-24c0-1 1-1 3-1c0 0 1 0 1-1c0 0 2 0 4-1c2 0 4 0 5 0m0 334c68 0 126-24 174-72c48-48 72-106 72-174c0-68-24-125-72-174c-48-48-106-72-174-72c-68 0-125 24-174 72c-48 49-72 106-72 174c0 68 24 126 72 174c49 48 106 72 174 72m0-447c55 0 103 20 142 59c39 39 59 87 59 142c0 56-20 103-59 142c-39 39-87 59-142 59c-55 0-103-20-142-59c-39-39-59-86-59-142c0-55 20-103 59-142c39-39 87-59 142-59"/>
<glyph unicode="&#86;" d="m288 454c58 0 107-21 148-62c40-41 61-90 61-148c0-58-21-108-61-149c-41-41-90-61-148-61c-49 0-92 15-129 45c0 0 36 38 36 38c28-21 59-31 93-31c43 0 80 15 110 46c31 31 46 68 46 112c0 43-15 81-46 111c-30 31-67 46-110 46c-43 0-79-14-110-44c-31-30-46-66-47-108c0 0 73 0 73 0c0 0-94-105-94-105c0 0-95 105-95 105c0 0 64 0 64 0c1 56 21 105 62 145c41 40 90 60 147 60"/>
<glyph unicode="&#87;" d="m256 492c65 0 120-24 166-70c46-46 70-101 70-166c0-65-24-120-70-166c-46-46-101-70-166-70c-65 0-120 24-166 70c-46 46-70 101-70 166c0 65 24 120 70 166c46 46 101 70 166 70m0-313c21 0 39 8 54 23c15 15 23 33 23 54c0 22-8 40-22 55c-15 14-33 22-55 22c-21 0-39-8-54-23c-15-15-23-33-23-54c0-21 8-39 23-54c15-15 33-23 54-23"/>
<glyph unicode="&#88;" d="m499 452c5 7 8 6 8-2c0 0 0-394 0-394c0 0-494 0-494 0c-4 0-6 2-7 4c-1 2-1 5 2 9c0 0 118 147 118 147c7 8 14 8 20 1c0 0 38-34 38-34c4-2 7-4 11-3c4 0 7 2 9 5c0 0 81 122 81 122c5 9 12 10 19 2c0 0 57-53 57-53c7-7 14-6 20 2c0 0 118 194 118 194"/>
<glyph unicode="&#89;" d="m480 512l-448 0c-18 0-32-14-32-32l0-352c0-18 14-32 32-32l192 0l0-32l-96 0c-18 0-32-14-32-32l0-32l320 0l0 32c0 18-14 32-32 32l-96 0l0 32l192 0c18 0 32 14 32 32l0 352c0 18-14 32-32 32z m-32-352l-384 0l0 288l384 0z"/>
<glyph unicode="&#90;" d="m480 512l-448 0c-18 0-32-14-32-32l0-448c0-18 14-32 32-32l448 0c18 0 32 14 32 32l0 448c0 18-14 32-32 32z m-32-448l-192 0l0 192l-192 0l0 192l192 0l0-192l192 0z"/>
<glyph unicode="&#48;" d="m480 512l-448 0c-18 0-32-14-32-32l0-448c0-18 14-32 32-32l448 0c18 0 32 14 32 32l0 448c0 18-14 32-32 32z m-288-256c0 0 5 64 64 64c59 0 64-64 64-64c0 0 2-64-64-64c-66 0-64 64-64 64z m256-192l-384 0l0 224l69 0c-3-10-5-21-5-32c0-71 57-128 128-128c71 0 128 57 128 128c0 11-2 22-5 32l69 0z m0 288l-96 0l0 96l96 0z"/>
<glyph unicode="&#50;" d="m448 256c0 106-86 192-192 192c-106 0-192-86-192-192c0-67 34-125 86-160l-54-53l43-43l70 70c15-4 31-6 47-6c16 0 32 2 47 6l70-70l43 43l-54 53c52 35 86 93 86 160z m-192-128c-71 0-128 57-128 128c0 71 57 128 128 128c71 0 128-57 128-128c0-71-57-128-128-128z m192 384c-35 0-64-29-64-64c0-3 0-6 1-9c21-15 39-33 54-54c3-1 6-1 9-1c35 0 64 29 64 64c0 35-29 64-64 64z m-375-127c15 21 33 39 54 54c1 3 1 6 1 9c0 35-29 64-64 64c-35 0-64-29-64-64c0-35 29-64 64-64c3 0 6 0 9 1z m215-97l0 64l-64 0l0-128l96 0l0 64z"/>
<glyph unicode="&#51;" d="m480 448l-448 0c-18 0-32-14-32-32l0-320c0-18 14-32 32-32l448 0c18 0 32 14 32 32l0 320c0 18-14 32-32 32z m-64-64l-160-128l-160 128z m32-256l-384 0l0 224l192-160l192 160z"/>
<glyph unicode="&#52;" d="m304 512l-96 0c-115 0-208-93-208-208c0-74 39-139 98-176l-2 0l0-128l144 96l64 0c115 0 208 93 208 208c0 115-93 208-208 208z m0-352l-64 0l-80-48l0 57c-56 20-96 72-96 135c0 80 64 144 144 144l96 0c80 0 144-64 144-144c0-80-64-144-144-144z"/>
<glyph unicode="&#54;" d="m384 512l-256 0l-128-256l0-224c0-18 14-32 32-32l448 0c18 0 32 14 32 32l0 224z m64-448l-384 0l0 192l96 192l192 0l96-192z m-128 320l-128 0l-64-128l64 0l0-64l128 0l0 64l64 0z"/>
<glyph unicode="&#55;" d="m448 512l-384 0c-18 0-32-14-32-32l0-448c0-18 14-32 32-32l384 0c18 0 32 14 32 32l0 448c0 18-14 32-32 32z m-288-448l-64 0l0 64l64 0z m0 96l-64 0l0 64l64 0z m0 96l-64 0l0 64l64 0z m128-192l-64 0l0 64l64 0z m0 96l-64 0l0 64l64 0z m0 96l-64 0l0 64l64 0z m128-192l-64 0l0 64l64 0z m0 96l-64 0l0 64l64 0z m0 96l-64 0l0 64l64 0z m0 128l-320 0l0 64l320 0z"/>
<glyph unicode="&#56;" d="m480 416l-128 0l0 64c0 18-14 32-32 32l-128 0c-18 0-32-14-32-32l0-64l-64 0l0 32l-64 0l0-32c-18 0-32-14-32-32l0-352c0-18 14-32 32-32l448 0c18 0 32 14 32 32l0 352c0 18-14 32-32 32z m-256 32l64 0l0-32l-64 0z m224-384l-384 0l0 288l384 0z m-192 64c53 0 96 43 96 96c0 53-43 96-96 96c-53 0-96-43-96-96c0-53 43-96 96-96z m0 128c18 0 32-14 32-32c0-18-14-32-32-32c-18 0-32 14-32 32c0 18 14 32 32 32z"/>
<glyph unicode="&#57;" d="m256 384c-71 0-128-57-128-128c0-71 57-128 128-128c71 0 128 57 128 128c0 71-57 128-128 128z m0-192c-35 0-64 29-64 64c0 35 29 64 64 64z m0 256c18 0 32 14 32 32c0 18-14 32-32 32c-18 0-32-14-32-32c0-18 14-32 32-32z m-160-64c18 0 32 14 32 32c0 18-14 32-32 32c-18 0-32-14-32-32c0-18 14-32 32-32z m-64-96c-18 0-32-14-32-32c0-18 14-32 32-32c18 0 32 14 32 32c0 18-14 32-32 32z m64-160c-18 0-32-14-32-32c0-18 14-32 32-32c18 0 32 14 32 32c0 18-14 32-32 32z m160-64c-18 0-32-14-32-32c0-18 14-32 32-32c18 0 32 14 32 32c0 18-14 32-32 32z m160 64c-18 0-32-14-32-32c0-18 14-32 32-32c18 0 32 14 32 32c0 18-14 32-32 32z m64 160c-18 0-32-14-32-32c0-18 14-32 32-32c18 0 32 14 32 32c0 18-14 32-32 32z m-64 96c18 0 32 14 32 32c0 18-14 32-32 32c-18 0-32-14-32-32c0-18 14-32 32-32z"/>
<glyph unicode="&#33;" d="m128 384l64 0l0-64l-64 0z m0-96l64 0l0-64l-64 0z m0-96l64 0l0-64l-64 0z m128 0l128 0l0-64l-128 0z m224 320l-448 0c-18 0-32-14-32-32l0-448c0-18 14-32 32-32l448 0c18 0 32 14 32 32l0 448c0 18-14 32-32 32z m-32-448l-384 0l0 384l384 0z m-192 224l128 0l0-64l-128 0z m0 96l128 0l0-64l-128 0z"/>
<glyph unicode="&#35;" d="m480 224l-64 0c-18 0-32 14-32 32c0 18 14 32 32 32l64 0c18 0 32-14 32-32c0-18-14-32-32-32z m-88 123c-13-13-33-13-45 0c-13 12-13 32 0 45l45 45c12 13 33 13 45 0c13-12 13-33 0-45z m-136-347c-18 0-32 14-32 32l0 64c0 18 14 32 32 32c18 0 32-14 32-32l0-64c0-18-14-32-32-32z m0 384c-18 0-32 14-32 32l0 64c0 18 14 32 32 32c18 0 32-14 32-32l0-64c0-18-14-32-32-32z m-136-309c-12-12-32-12-45 0c-12 12-12 33 0 45l45 46c13 12 33 12 46 0c12-13 12-33 0-46z m0 272l-45 45c-12 12-12 33 0 45c13 13 33 13 45 0l46-45c12-13 12-33 0-45c-13-13-33-13-46 0z m8-91c0-18-14-32-32-32l-64 0c-18 0-32 14-32 32c0 18 14 32 32 32l64 0c18 0 32-14 32-32z m264-90l45-46c13-12 13-33 0-45c-12-12-33-12-45 0l-45 45c-13 13-13 33 0 46c12 12 32 12 45 0z"/>
<glyph unicode="&#36;" d="m480 128l-32 0l0 320l-320 0l0 32c0 18 14 32 32 32l320 0c18 0 32-14 32-32l0-320c0-18-14-32-32-32z m-64 256l0-352c0-18-14-32-32-32l-352 0c-18 0-32 14-32 32l0 352c0 18 14 32 32 32l352 0c18 0 32-14 32-32z m-64-32l-288 0l0-96l288 0z m0-160l-288 0l0-128l288 0z m-224 96l-32 0l0 32l32 0z m64 0l-32 0l0 32l32 0z m128 0l-96 0l0 32l96 0z"/>
<glyph unicode="&#37;" d="m128 288l256 0l0-64l-256 0z m0 96l256 0l0-64l-256 0z m352 128l-448 0c-18 0-32-14-32-32l0-352c0-18 14-32 32-32l64 0l0-96l144 96l240 0c18 0 32 14 32 32l0 352c0 18-14 32-32 32z m-32-352l-208 0l-80-48l0 48l-96 0l0 288l384 0z"/>
<glyph unicode="&#38;" d="m256 512c-141 0-256-115-256-256c0-141 115-256 256-256c141 0 256 115 256 256c0 141-115 256-256 256z m0-448c-106 0-192 86-192 192c0 106 86 192 192 192c106 0 192-86 192-192c0-106-86-192-192-192z m-128 192l128-96l0 72l96-72l0 192l-96-72l0 72z"/>
<glyph unicode="&#40;" d="m272 512l-32 0c-97 0-176-79-176-176c0-68 39-128 96-157l0-19c0-18 14-32 32-32l128 0c18 0 32 14 32 32l0 19c57 29 96 89 96 157c0 97-79 176-176 176z m16-287l0-33l-64 0l0 33c-54 8-96 55-96 111c0 62 50 112 112 112l32 0c62 0 112-50 112-112c0-56-42-103-96-111z m-80-129l96 0c9 0 16-7 16-16c0-9-7-16-16-16l-96 0c-9 0-16 7-16 16c0 9 7 16 16 16z m32-64l32 0c9 0 16-7 16-16c0-9-7-16-16-16l-32 0c-9 0-16 7-16 16c0 9 7 16 16 16z"/>
<glyph unicode="&#42;" d="m416 512l-320 0c-18 0-32-14-32-32l0-448c0-18 14-32 32-32l320 0c18 0 32 14 32 32l0 448c0 18-14 32-32 32z m-32-384l-256 0l0 320l256 0z"/>
<glyph unicode="&#43;" d="m512 320c0-142-256-320-256-320c0 0-256 178-256 320c0 14 1 30 0 48c-5 79 64 144 144 144c46 0 86-31 112-64c26 33 66 64 112 64c80 0 149-65 144-144c-1-18 0-34 0-48z m-64 48c4 44-36 80-80 80c-83 0-80-64-80-64c0-18-14-32-32-32c-18 0-32 14-32 32c0 0 3 64-80 64c-44 0-84-36-80-80c2-18-1-35 0-48c0 0 0 0 0 0c2 0-11-94 192-239c0 0 0 0 0 0c0 0 0 0 0 0c203 145 190 239 192 239c0 0 0 0 0 0c1 13-2 30 0 48z"/>
<glyph unicode="&#44;" d="m416 512l-64 0l0-64l64 0z m64 0l-32 0l0-96l-128 0l0 96l-128 0l0-96l-128 0l0 96l-32 0c-18 0-32-14-32-32l0-448c0-18 14-32 32-32l448 0c18 0 32 14 32 32l0 448c0 18-14 32-32 32z m-32-448l-384 0l0 288l384 0z m-288 448l-64 0l0-64l64 0z m128-224l-64 0l0-64l64 0z m96 0l-64 0l0-64l64 0z m-192-96l-64 0l0-64l64 0z m0 96l-64 0l0-64l64 0z m96-96l-64 0l0-64l64 0z m96 0l-64 0l0-64l64 0z"/>
<glyph unicode="&#45;" d="m326 384l-97-103l-44 47l-41-44l87-92l137 147z m154 128l-448 0c-18 0-32-14-32-32l0-448c0-18 14-32 32-32l448 0c18 0 32 14 32 32l0 448c0 18-14 32-32 32z m-32-352l-96 0l0-96l-192 0l0 96l-96 0l0 288l384 0z"/>
<glyph unicode="&#46;" d="m480 64l-32 0l0 64c0 18-14 32-32 32c-18 0-32-14-32-32l0-64l-256 0l0 64c0 18-14 32-32 32c-18 0-32-14-32-32l0-64l-32 0c-18 0-32-14-32-32c0-18 14-32 32-32l448 0c18 0 32 14 32 32c0 18-14 32-32 32z m0 448l-448 0c-18 0-32-14-32-32l0-192c0-35 29-64 64-64c35 0 64 29 64 64c0-35 29-64 64-64c35 0 64 29 64 64c0-35 29-64 64-64c35 0 64 29 64 64c0-35 29-64 64-64c35 0 64 29 64 64l0 192c0 18-14 32-32 32z"/>
<glyph unicode="&#58;" d="m408 361c-13-13-34-13-47 0c-13 13-13 34 0 47l94 94c13 13 34 13 47 0c13-13 13-34 0-47z m-152-361l-128 128l-96 0c-18 0-32 14-32 32l0 192c0 18 14 32 32 32l96 0l128 128c0 0 32 4 32-32c0-191 0-479 0-448c0-36-32-32-32-32z m-32 384l-64-64l-96 0l0-128l96 0l64-64z m160-160c-18 0-32 14-32 32c0 18 14 32 32 32l96 0c17 0 32-14 32-32c0-18-15-32-32-32z m24-73l94-94c13-13 13-34 0-47c-13-13-34-13-47 0l-94 94c-13 13-13 34 0 47c13 13 34 13 47 0z"/>
<glyph unicode="&#59;" d="m224 512c-18 0-32-14-32-32l0-160l-32 0l0 160c0 18-14 32-32 32c-18 0-32-14-32-32l0-160l-32 0l0 160c0 18-14 32-32 32c-18 0-32-14-32-32l0-192c0-18 14-32 32-32l64 0l0-224c0-18 14-32 32-32c18 0 32 14 32 32l0 224l64 0c18 0 32 14 32 32l0 192c0 18-14 32-32 32z m192 0c-53 0-96-43-96-96c0-42 27-77 64-90l0-294c0-18 14-32 32-32c18 0 32 14 32 32l0 294c37 13 64 48 64 90c0 53-43 96-96 96z"/>
<glyph unicode="&#60;" d="m192 224l-160 0c-18 0-32-14-32-32l0-160c0-18 14-32 32-32l160 0c18 0 32 14 32 32l0 160c0 18-14 32-32 32z m-32-160l-96 0l0 96l96 0z m32 448l-160 0c-18 0-32-14-32-32l0-160c0-18 14-32 32-32l160 0c18 0 32 14 32 32l0 160c0 18-14 32-32 32z m-32-160l-96 0l0 96l96 0z m320-128l-160 0c-18 0-32-14-32-32l0-160c0-18 14-32 32-32l160 0c18 0 32 14 32 32l0 160c0 18-14 32-32 32z m-32-160l-96 0l0 96l96 0z m32 448l-160 0c-18 0-32-14-32-32l0-160c0-18 14-32 32-32l160 0c18 0 32 14 32 32l0 160c0 18-14 32-32 32z m-32-160l-96 0l0 96l96 0z"/>
<glyph unicode="&#61;" d="m480 416l-128 0l0 64c0 18-14 32-32 32l-128 0c-18 0-32-14-32-32l0-64l-128 0c-18 0-32-14-32-32l0-352c0-18 14-32 32-32l448 0c18 0 32 14 32 32l0 352c0 18-14 32-32 32z m-256 32l64 0l0-32l-64 0z m224-384l-384 0l0 128l128 0l0-32l128 0l0 32l128 0z m0 160l-128 0l0 32l-128 0l0-32l-128 0l0 128l384 0z"/>
<glyph unicode="&#62;" d="m256 512c-106 0-192-86-192-192c0-106 192-320 192-320c0 0 192 214 192 320c0 106-86 192-192 192z m0-320c-71 0-128 57-128 128c0 71 57 128 128 128c71 0 128-57 128-128c0-71-57-128-128-128z m0 192c-35 0-64-29-64-64c0-35 29-64 64-64c35 0 64 29 64 64c0 35-29 64-64 64z"/>
<glyph unicode="&#91;" d="m256 0c-141 0-256 115-256 256c0 141 115 256 256 256c141 0 256-115 256-256c0-141-115-256-256-256z m0 448c-106 0-192-86-192-192c0-106 86-192 192-192c106 0 192 86 192 192c0 106-86 192-192 192z m0-64c-53 0-96-43-96-96l64 0c0 18 14 32 32 32c18 0 32-14 32-32c0-18-14-32-32-32c-1 0-5 0-16 0c-9 0-16-7-16-16l0-48l64 0l0 6c37 13 64 48 64 90c0 53-43 96-96 96z m0-224l-32 0l0-32l64 0l0 32z"/>
<glyph unicode="&#93;" d="m400 224c-17 0-33-4-48-11l0 86c15-7 31-11 48-11c62 0 112 50 112 112c0 62-50 112-112 112c-62 0-112-50-112-112l0-48l-64 0l0 48c0 62-50 112-112 112c-62 0-112-50-112-112c0-62 50-112 112-112c17 0 33 4 48 11l0-86c-15 7-31 11-48 11c-62 0-112-50-112-112c0-62 50-112 112-112c62 0 112 50 112 112l0 48l64 0l0-48c0-62 50-112 112-112c62 0 112 50 112 112c0 62-50 112-112 112z m0 224c27 0 48-21 48-48c0-27-21-48-48-48c-26 0-48 21-48 48c0 27 22 48 48 48z m-288-384c-26 0-48 21-48 48c0 27 22 48 48 48c27 0 48-21 48-48c0-27-21-48-48-48z m0 288c-26 0-48 21-48 48c0 27 22 48 48 48c27 0 48-21 48-48c0-27-21-48-48-48z m176-128l-64 0l0 64l64 0z m112-160c-26 0-48 21-48 48c0 27 22 48 48 48c27 0 48-21 48-48c0-27-21-48-48-48z"/>
<glyph unicode="&#94;" d="m480 512l-384 0c-18 0-32-14-32-32l0-32l-32 0c-18 0-32-14-32-32l0-384c0-18 14-32 32-32l448 0c18 0 32 14 32 32l0 448c0 18-14 32-32 32z m-352-448l-64 0l0 320l64 0z m320 0l-256 0l0 384l256 0z m-192 320l128 0l0-64l-128 0z m0-192l128 0l0-64l-128 0z m0 96l128 0l0-64l-128 0z"/>
<glyph unicode="&#95;" d="m256 400c0-80 64-144 144-144c43 0 80 19 108 63c5-1 4-44 4-63c-2-141-115-256-256-256c-142 0-256 115-256 256c0 141 114 254 256 256c17 0 34 0 63-2c-18-18-63-62-63-110z m-64-48c0 35 11 66 30 93c-90-17-158-95-158-189c0-106 86-192 192-192c94 0 172 68 188 158c-26-19-58-30-92-30c-89 0-160 72-160 160z"/>
<glyph unicode="&#96;" d="m503 314l-189 189c-8 7-17 10-27 9l-62 0c-10 1-19-2-27-9l-38-39l0 48l-96 0l0-144l-55-54c-7-8-10-17-9-27l0-63c0-18 14-32 32-32l32 0l0-160c0-18 14-32 32-32l320 0c18 0 32 14 32 32l0 160l32 0c18 0 32 14 32 32l0 63c1 10-2 19-9 27z m-55-58l-64 0l0-192l-64 0l0 128l-128 0l0-128l-64 0l0 192l-64 0l0 18l174 174l36 0l174-174z"/>
<glyph unicode="&#125;" d="m320 9l0 67c74 26 128 97 128 180c0 83-54 154-128 180l0 67c110-28 192-128 192-247c0-119-82-219-192-247z m-64-9l-128 128l-96 0c-18 0-32 14-32 32l0 192c0 18 14 32 32 32l96 0l128 128c0 0 32 4 32-32c0-73 0-382 0-448c0-36-32-32-32-32z m-32 384l-64-64l-96 0l0-128l96 0l64-64z m192-128c0-60-41-109-96-123l0 68c19 11 32 31 32 55c0 24-13 44-32 55l0 68c55-14 96-63 96-123z"/>
<glyph unicode="&#57344;" d="m512 208l-48-47l-48 47l-48-47l-47 47l47 48l-47 48l47 47l48-47l48 47l48-47l-48-48z m-256-208l-128 128l-96 0c-17 0-32 14-32 32l0 192c0 18 15 32 32 32l96 0l128 128c0 0 32 4 32-32c0-174 0-426 0-448c0-36-32-32-32-32z m-32 384l-64-64l-96 0l0-128l96 0l64-64z"/>
<glyph unicode="&#57345;" d="m480 512l-448 0c-18 0-32-14-32-32l0-448c0-18 14-32 32-32l448 0c18 0 32 14 32 32l0 448c0 18-14 32-32 32z m-32-384l-384 0l0 320l384 0z"/>
<glyph unicode="&#57346;" d="m256 0c-141 0-256 115-256 256c0 141 115 256 256 256c141 0 256-115 256-256c0-141-115-256-256-256z m0 448c-106 0-192-86-192-192c0-106 86-192 192-192c106 0 192 86 192 192c0 106-86 192-192 192z m-64-128l128 0l0-128l-128 0z"/>
<glyph unicode="&#57347;" d="m256 0c-141 0-256 115-256 256c0 141 115 256 256 256c141 0 256-115 256-256c0-141-115-256-256-256z m0 448c-106 0-192-86-192-192c0-106 86-192 192-192c106 0 192 86 192 192c0 106-86 192-192 192z m0-320c-71 0-128 57-128 128c0 71 57 128 128 128c71 0 128-57 128-128c0-71-57-128-128-128z"/>
<glyph unicode="&#57348;" d="m256 512c-141 0-256-115-256-256c0-141 115-256 256-256c141 0 256 115 256 256c0 141-115 256-256 256z m0-448c-106 0-192 86-192 192c0 106 86 192 192 192c106 0 192-86 192-192c0-106-86-192-192-192z m128 192l-128 96l0-72l-96 72l0-192l96 72l0-72z"/>
<glyph unicode="&#57349;" d="m256 0c-141 0-256 115-256 256c0 141 115 256 256 256c141 0 256-115 256-256c0-141-115-256-256-256z m0 448c-106 0-192-86-192-192c0-106 86-192 192-192c106 0 192 86 192 192c0 106-86 192-192 192z m-32-256l64 0l0-64l-64 0z m0 192l64 0l0-160l-64 0z"/>
<glyph unicode="&#57350;" d="m512 288l0-64l-67 0c-5-28-16-54-32-77l67-58l-46-57l-74 64c-21-14-46-24-72-29l0-67l-64 0l0 67c-26 4-51 15-72 29l-74-64l-46 57l67 58c-16 23-27 49-32 77l-67 0l0 64l67 0c5 28 16 54 32 77l-67 58l46 57l74-64c21 14 46 24 72 29l0 67l64 0l0-67c26-5 51-15 72-29l74 64l46-57l-67-58c16-23 27-49 32-77z m-256 64c-53 0-96-43-96-96c0-53 43-96 96-96c53 0 96 43 96 96c0 53-43 96-96 96z"/>
<glyph unicode="&#57351;" d="m128 160l160 0l0-32l-160 0z m0 64l160 0l0-32l-160 0z m0 160l160 0l0-128l-160 0z m352 64l-96 0l0 64l-352 0c-18 0-32-14-32-32l0-448c0-18 14-32 32-32l448 0c18 0 32 14 32 32l0 384c0 18-14 32-32 32z m-32-384l-384 0l0 384l288 0l0-320l32 0l0 256l64 0z"/>
<glyph unicode="&#57352;" d="m480 0l-448 0c-18 0-32 14-32 32l0 448c0 18 14 32 32 32l448 0c18 0 32-14 32-32l0-448c0-18-14-32-32-32z m-32 448l-384 0l0-384l384 0z m-224-160l-96 0l0 96l96 0z m0-160l-96 0l0 96l96 0z m160 160l-96 0l0 96l96 0z m0-160l-96 0l0 96l96 0z"/>
<glyph unicode="&#57353;" d="m288 288l0 96l-64 0l0-160l128 0l0 64z m-32 224c-141 0-256-115-256-256c0-141 115-256 256-256c141 0 256 115 256 256c0 141-115 256-256 256z m0-448c-106 0-192 86-192 192c0 106 86 192 192 192c106 0 192-86 192-192c0-106-86-192-192-192z"/>
<glyph unicode="&#57354;" d="m256 512c-141 0-256-115-256-256c0-141 115-256 256-256c141 0 256 115 256 256c0 141-115 256-256 256z m0-448c-106 0-192 86-192 192c0 106 86 192 192 192c106 0 192-86 192-192c0-106-86-192-192-192z m-96 128l64 0l0 128l-64 0z m128 0l64 0l0 128l-64 0z"/>
<glyph unicode="&#57355;" d="m256 0c-141 0-256 115-256 256c0 141 115 256 256 256c141 0 256-115 256-256c0-141-115-256-256-256z m0 448c-106 0-192-86-192-192c0-106 86-192 192-192c106 0 192 86 192 192c0 106-86 192-192 192z m94-307l-6-4l-16-10l-9-7c-7-3-15-6-23-8l0 10l-2 21c0 0-2 13-4 16c-2 3-6 8-11 10c-5 2-8 2-11 5c-3 4-5 9-8 15c-4 5-8 10-8 13c0 3 0 30 0 30l4 25l7 5l9 10l6 2l21-4l15 0l6-13l14-11l9-14l12-4l13 0l8-10l6-12l2-7l0-14l-2-7c-8-14-19-27-32-37z m-52 227l-15-8l-6-15l-8-8l-30 0l-13-5l-1-11l-5-8l-2-10l3-8l4-7c0 0 8-10 0-16c0 0-11 0-13 3c-2 3-17 13-19 15c-3 3-12 5-12 5l-11 4l-10 1l1 14l-1 12l-4 8l-11 9l-1 9l1 5c28 27 66 43 107 43c24 0 46-5 66-15l-1-3z"/>
<glyph unicode="&#57356;" d="m480 0l-448 0c-18 0-32 14-32 32l0 448c0 18 14 32 32 32l64 0l0-64l-32 0l0-384l384 0l0 384l-32 0l0 64l64 0c18 0 32-14 32-32l0-448c0-18-14-32-32-32z m-352 384l32 0l0 96l64 0l0 32l64 0l0-32l64 0l0-96l32 0l0-256l-256 0z m160 64l-64 0l0-32l64 0z m-96-256l128 0l0 128l-128 0z"/>
<glyph unicode="&#57357;" d="m288 3l0-3l-64 0l0 3c-108 16-192 108-192 221l0 128c0 88 72 160 160 160c77 0 145-55 160-128l0-160c0-53-43-96-96-96c-53 0-96 43-96 96l0 128c0 18 14 32 32 32c18 0 32-14 32-32l0-128c0-18 14-32 32-32c18 0 32 14 32 32l0 160c0 0-21 64-96 64c-53 0-96-43-96-96l0-128c0-88 72-160 160-160c88 0 160 72 160 160l0 256c0 18 14 32 32 32c18 0 32-14 32-32l0-256c0-113-84-205-192-221z"/>
<glyph unicode="&#57358;" d="m256 416l-192 96l-32 0c-18 0-32-14-32-32l0-352c0-18 14-32 32-32l224-96l224 96c18 0 32 14 32 32l0 352c0 18-14 32-32 32l-32 0m-224-432l-160 80l0 256l160-53z m224 80l-160-80l0 283l160 53z"/>
<glyph unicode="&#57359;" d="m256 0c-141 0-256 115-256 256c0 141 115 256 256 256c141 0 256-115 256-256c0-141-115-256-256-256z m0 448c-106 0-192-86-192-192c0-106 86-192 192-192c106 0 192 86 192 192c0 106-86 192-192 192z m-128-192c0 71 57 128 128 128l0-256c-71 0-128 57-128 128z"/>
<glyph unicode="&#57360;" d="m480 512l-448 0c-18 0-32-14-32-32l0-448c0-18 14-32 32-32l448 0c18 0 32 14 32 32l0 448c0 18-14 32-32 32z m-32-352l-96 0l0-96l-192 0l0 96l-96 0l0 288l384 0z m-320 128l256 0l0-64l-256 0z m0 96l256 0l0-64l-256 0z"/>
<glyph unicode="&#57361;" d="m224 512c-18 0-32-14-32-32l0-160l-32 0l0 160c0 18-14 32-32 32c-18 0-32-14-32-32l0-160l-32 0l0 160c0 18-14 32-32 32c-18 0-32-14-32-32l0-192c0-18 14-32 32-32l64 0l0-224c0-18 14-32 32-32c18 0 32 14 32 32l0 224l64 0c18 0 32 14 32 32l0 192c0 18-14 32-32 32z m224 0c0 0-64-21-64-96l0-64c0-42 27-77 64-90l0-230c0-18 14-32 32-32c18 0 32 14 32 32l0 480z"/>
<glyph unicode="&#57363;" d="m32 288c-18 0-32-14-32-32c0-18 14-32 32-32c18 0 32 14 32 32c0 18-14 32-32 32z m64 96c18 0 32 14 32 32c0 18-14 32-32 32c-18 0-32-14-32-32c0-18 14-32 32-32z m160 64c18 0 32 14 32 32c0 18-14 32-32 32c-18 0-32-14-32-32c0-18 14-32 32-32z m-160-320c-18 0-32-14-32-32c0-18 14-32 32-32c18 0 32 14 32 32c0 18-14 32-32 32z m320 0c-18 0-32-14-32-32c0-18 14-32 32-32c18 0 32 14 32 32c0 18-14 32-32 32z m-160 256c-71 0-128-57-128-128c0-71 57-128 128-128c71 0 128 57 128 128c0 71-57 128-128 128z m0-192c-35 0-64 29-64 64c0 35 29 64 64 64c35 0 64-29 64-64c0-35-29-64-64-64z m224 96c-18 0-32-14-32-32c0-18 14-32 32-32c18 0 32 14 32 32c0 18-14 32-32 32z m-224-224c-18 0-32-14-32-32c0-18 14-32 32-32c18 0 32 14 32 32c0 18-14 32-32 32z m160 320c18 0 32 14 32 32c0 18-14 32-32 32c-18 0-32-14-32-32c0-18 14-32 32-32z"/>
<glyph unicode="&#57364;" d="m480 0l-448 0c-18 0-32 14-32 32l0 448c0 18 14 32 32 32l448 0c18 0 32-14 32-32l0-448c0-18-14-32-32-32z m-32 448l-384 0l0-96l384 0z m0-160l-384 0l0-224l384 0z m-320 96l-32 0l0 32l32 0z m64 0l-32 0l0 32l32 0z m224 0l-192 0l0 32l192 0z"/>
<glyph unicode="&#57365;" d="m503 380l-123 123c-12 12-30 12-41 0l-124-123c-12-12-12-30 0-42l20-20l124 124l83-83l-124-124l21-20c11-12 29-12 41 0l123 123c12 12 12 30 0 42z m-226-186l-124-124l-83 83l124 124l-20 20c-12 12-30 12-42 0l-123-123c-12-12-12-30 0-42l123-123c12-12 30-12 42 0l123 123c12 12 12 30 0 42z m-103-20c11-12 29-12 41 0l124 123c11 12 11 30 0 41c-12 12-30 12-42 0l-123-123c-12-12-12-30 0-41z"/>
<glyph unicode="&#57366;" d="m480 512l-224 0c-18 0-32-14-32-32c0-18 14-32 32-32l192 0l0-384l-192 0c-18 0-32-14-32-32c0-18 14-32 32-32l224 0c18 0 32 14 32 32l0 448c0 18-14 32-32 32z m-256-384l128 128l-128 128l0-96l-195 0c-16 0-29-14-29-32c0-18 13-32 29-32l195 0z"/>
<glyph unicode="&#57368;" d="m128 192l256 0l0-64l-256 0z m0 96l256 0l0-64l-256 0z m352 224l-448 0c-18 0-32-14-32-32l0-448c0-18 14-32 32-32l448 0c18 0 32 14 32 32l0 448c0 18-14 32-32 32z m-32-448l-384 0l0 384l384 0z m-320 320l256 0l0-64l-256 0z"/>
<glyph unicode="&#57369;" d="m480 0l-448 0c-18 0-32 14-32 32l0 448c0 18 14 32 32 32l320 0l-64-64l-224 0l0-384l384 0l0 224l64 64l0-320c0-18-14-32-32-32z m-352 128l0 96l288 288l32 0l64-64l0-32l-288-288z m144 112l176 176l-32 32l-176-176z m-80-16l-32-32l0-32l32 0l32 32z"/>
<glyph unicode="&#57370;" d="m473 103c-47-64-129-104-217-103c-88-1-170 39-217 103l-39-39l0 128l128 0l-35-35c28-47 75-80 131-90l0 194c-55 14-96 63-96 123c0 71 57 128 128 128c71 0 128-57 128-128c0-60-41-109-96-123l0-194c56 10 103 43 131 90l-35 35l128 0l0-128z m-153 281c0 35-29 64-64 64c-35 0-64-29-64-64c0-35 29-64 64-64c35 0 64 29 64 64z"/>
<glyph unicode="&#57373;" d="m480 512l-256 0c-18 0-32-14-32-32l0-256c0-18 14-32 32-32l256 0c18 0 32 14 32 32l0 256c0 18-14 32-32 32z m-32-256l-192 0l0 192l192 0z m-192-192l-192 0l0 192l64 0l0 64l-96 0c-18 0-32-14-32-32l0-256c0-18 14-32 32-32l256 0c18 0 32 14 32 32l0 96l-64 0z"/>
<glyph unicode="&#57376;" d="m356 370c-5 0-10-1-15-2c-33 52-90 87-156 87c-102 0-185-83-185-185l0-28c0-97 75-178 171-185l199 0c79 7 142 75 142 156c0 87-70 157-156 157z m14-256l-199 0c-16 2-31 8-45 15c0 0 0 0-1 0c-6 3-12 7-18 12c0 0-1 1-2 2c-5 4-10 8-14 13c-2 1-3 3-4 4c-4 4-7 9-10 13c-2 3-3 6-5 9c-2 4-4 8-6 12c-1 4-3 9-4 13c-1 4-2 7-3 10c-1 8-2 16-2 25l0 28c0 71 57 128 128 128c9 0 19-1 28-3c2 0 3-1 5-2c7-2 14-4 21-7c1-1 2-1 3-2c8-4 15-8 21-13c0 0 1-1 1-1c22-17 38-41 45-69c14 7 30 12 47 12c55 0 99-45 99-100c0-50-37-92-85-99z"/>
<glyph unicode="&#57377;" d="m256 512c-106 0-192-86-192-192c0-106 192-320 192-320c0 0 192 214 192 320c0 106-86 192-192 192z m0-320c-71 0-128 57-128 128c0 71 57 128 128 128c71 0 128-57 128-128c0-71-57-128-128-128z"/>
<glyph unicode="&#57379;" d="m256 0c-141 0-256 115-256 256c0 141 115 256 256 256c141 0 256-115 256-256c0-141-115-256-256-256z m0 448c-106 0-192-86-192-192c0-106 86-192 192-192c106 0 192 86 192 192c0 106-86 192-192 192z m-64-96l160-96l-160-96z"/>
<glyph unicode="&#57380;" d="m187 374c0-27-22-49-49-49c-27 0-50 22-50 49c0 27 23 49 50 49c27 0 49-22 49-49z m-187 138l0-212l300-300c0 0 0 173 0 212c39 0 212 0 212 0l-300 300z m189-57c12-12 126-126 185-186c-49 0-131 0-131 0c0 0 0-82 0-131c-60 59-174 173-186 185c0 17 0 96 0 132c36 0 115 0 132 0z"/>
<glyph unicode="&#57381;" d="m212 512l-212 0l0-212l300-300l0 212l212 0z m-95-178c-34 0-61 27-61 61c0 34 27 61 61 61c34 0 61-27 61-61c0-34-27-61-61-61z"/>
<glyph unicode="&#57385;" d="m256 171c0 47-38 85-85 85c-48 0-86-38-86-85l0 0c0-63-34-119-85-148l0 0c25-15 54-23 85-23c95 0 171 76 171 171z m237 322c-25 25-65 25-90 0l-183-182c43-15 76-48 91-91l182 183c25 25 25 65 0 90z"/>
<glyph unicode="&#57386;" d="m384 512l128 0l0-512l-128 0z m-192-128l128 0l0-384l-128 0z m-192-128l128 0l0-256l-128 0z"/>
<glyph unicode="&#57387;" d="m0 192l256 320l256-320z m0-64l511 0l0-128l-511 0z"/>
<glyph unicode="&#57388;" d="m96 512c-35 0-64-29-64-64l0-384c0-35 29-64 64-64l384 0l0 512z m320-448l-256 0l0 384l64 0l0-129l64 64l64-64l0 129l64 0z"/>
<glyph unicode="&#57389;" d="m220 202l-160 160c-80-92-80-228 0-320z m99 243l0-234l-165-166c38-27 83-45 131-45c126 0 227 101 227 225c0 113-84 204-193 220z m-63-189l0 256c-70-4-133-31-184-73z"/>
<glyph unicode="&#57390;" d="m352 512c-88 0-160-72-160-160c0-10 1-20 3-29l-195-195l0-128l192 0l0 64l64 0l0 64l64 0l0 64l3 3c9-2 19-3 29-3c88 0 160 72 160 160c0 88-72 160-160 160z m0-192c-18 0-32 14-32 32c0 18 14 32 32 32c18 0 32-14 32-32c0-18-14-32-32-32z"/>
<glyph unicode="&#57391;" d="m485 368l-160-159l182 0c3 15 5 31 5 47c0 41-10 78-27 112z m-148-100l131 131c-31 46-77 81-131 99z m-69-93l131-131c46 31 81 77 99 131z m35 149l0 183c-15 3-31 5-47 5c-41 0-79-10-113-28z m-94-138l0-181c15-3 31-5 47-5c40 0 78 10 112 27z m-34 58l-131-131c31-46 77-81 131-99z m-170 59c-3-15-5-31-5-47c0-41 10-78 27-113l160 160l-182 0z m107 165c-46-32-80-78-98-131l229 0z"/>
<glyph unicode="&#57392;" d="m192 384l128 0l0-64l-128 0z m256-1l64 65l-64 0l0 64l-384 0c-35 0-64-29-64-64l0-384c0-35 29-64 64-64l384 0l0 319l64 0z m-64-319l-256 0l0 384l256 0l0-384z"/>
<glyph unicode="&#57393;" d="m64 448c0-18-14-32-32-32c-18 0-32 14-32 32c0 18 14 32 32 32c18 0 32-14 32-32z m0-128c0-18-14-32-32-32c-18 0-32 14-32 32c0 18 14 32 32 32c18 0 32-14 32-32z m0-128c0-18-14-32-32-32c-18 0-32 14-32 32c0 18 14 32 32 32c18 0 32-14 32-32z m0-128c0-18-14-32-32-32c-18 0-32 14-32 32c0 18 14 32 32 32c18 0 32-14 32-32z m64 416l384 0l0-64l-384 0z m0-128l384 0l0-64l-384 0z m0-128l384 0l0-64l-384 0z m0-128l384 0l0-64l-384 0z"/>
<glyph unicode="&#57394;" d="m369 465c-62 63-164 63-226 0c-63-62-63-164 0-226c0 0 113-111 113-239c0 128 113 239 113 239c63 62 63 164 0 226z m-113-177c-35 0-64 29-64 64c0 35 29 64 64 64c35 0 64-29 64-64c0-35-29-64-64-64z"/>
<glyph unicode="&#57395;" d="m160 256l32-32l-96 0l0-64l-96 96l96 96l0-64l96 0z m191 0l-31 32l96 0l0 64l96-96l-96-96l0 64l-96 0z"/>
<glyph unicode="&#57396;" d="m480 224l-32 0l0 64c0 106-86 192-192 192c-106 0-192-86-192-192l0-64l-32 0c-18 0-32-14-32-32l0-128c0-18 14-32 32-32l96 0l0 256c0 71 57 128 128 128c71 0 128-57 128-128l0-256l96 0c18 0 32 14 32 32l0 128c0 18-14 32-32 32z"/>
<glyph unicode="&#57398;" d="m512 102l-154 154l154 154l-102 102l-154-154l-154 154l-102-102l154-154l-154-154l102-102l154 154l154-154z"/>
<glyph unicode="&#57400;" d="m191 52l-191 191l91 91l100-100l230 230l91-91z"/>
<glyph unicode="&#57401;" d="m256 192c-23 0-44 5-64 12l0-204l64 64l64-64l0 204c-20-7-41-12-64-12z m0 320c-71 0-128-57-128-128c0-71 57-128 128-128c71 0 128 57 128 128c0 71-57 128-128 128z m0-192c-35 0-64 29-64 64c0 35 29 64 64 64c35 0 64-29 64-64c0-35-29-64-64-64z"/>
<glyph unicode="&#57402;" d="m506 422l-81-81l-84 0l0 86l80 79c-12 4-24 6-37 6c-71 0-128-57-128-128c0-20 5-38 13-55l-257-256c-7-8-12-19-12-30c0-24 19-43 43-43c11 0 22 5 30 12l256 257c17-8 35-13 55-13c71 0 128 57 128 128c0 13-3 26-6 38z"/>
<glyph unicode="&#57403;" d="m256 384c-71 0-128-57-128-128c0-71 57-128 128-128c71 0 128 57 128 128c0 71-57 128-128 128z m32 96c0-18-14-32-32-32c-18 0-32 14-32 32c0 18 14 32 32 32c18 0 32-14 32-32z m-160-64c0-18-14-32-32-32c-18 0-32 14-32 32c0 18 14 32 32 32c18 0 32-14 32-32z m-96-128c18 0 32-14 32-32c0-18-14-32-32-32c-18 0-32 14-32 32c0 18 14 32 32 32z m96-192c0-18-14-32-32-32c-18 0-32 14-32 32c0 18 14 32 32 32c18 0 32-14 32-32z m96-64c0 18 14 32 32 32c18 0 32-14 32-32c0-18-14-32-32-32c-18 0-32 14-32 32z m170 41c-13 13-13 33 0 46c12 12 32 12 45 0c12-13 12-33 0-46c-13-12-33-12-45 0z m86 151c-18 0-32 14-32 32c0 18 14 32 32 32c18 0 32-14 32-32c0-18-14-32-32-32z m-41 169c-13-12-33-12-45 0c-13 13-13 33 0 46c12 12 32 12 45 0c12-13 12-33 0-46z"/>
<glyph unicode="&#57404;" d="m512 256c0 141-115 256-256 256c-141 0-256-115-256-256c0-141 115-256 256-256c141 0 256 115 256 256z m-352-32l0-32l-64 64l64 64l0-32l192 0l0 32l64-64l-64-64l0 32z"/>
<glyph unicode="&#57405;" d="m512 64l0 192l-128 0c0 71 57 128 128 128l0 64c-106 0-192-86-192-192l0-192z m-320 0l0 192l-128 0c0 71 57 128 128 128l0 64c-106 0-192-86-192-192l0-192z"/>
<glyph unicode="&#57406;" d="m256 448c106 0 192-86 192-192c0-106-86-192-192-192c-106 0-192 86-192 192c0 106 86 192 192 192m0 64c-141 0-256-115-256-256c0-141 115-256 256-256c141 0 256 115 256 256c0 141-115 256-256 256z m87-297l-55 55l0 114l-64 0l0-128c0-10 4-18 11-24l63-62z"/>
<glyph unicode="&#57407;" d="m448 128c-16 0-29-6-40-15l-98 69c6 13 10 27 10 42c0 21-7 40-18 55l114 115c10-6 20-10 32-10c35 0 64 29 64 64c0 35-29 64-64 64c-35 0-64-29-64-64c0-12 4-22 10-32l-114-114c-16 11-35 18-56 18c-37 0-68-21-84-51l-77 26c-3 14-16 25-31 25c-18 0-32-14-32-32c0-18 14-32 32-32c8 0 15 3 21 8l77-25c-1-5-2-10-2-15c0-53 43-96 96-96c26 0 50 11 68 28l97-69c-3-7-5-15-5-23c0-35 29-64 64-64c35 0 64 29 64 64c0 35-29 64-64 64z"/>
<glyph unicode="&#57408;" d="m256 448c26 0 50-10 68-28c18-18 28-42 28-68c0-26-10-50-28-67c-2-3-35-36-68-87c-32 51-65 84-68 86c-18 18-28 42-28 68c0 26 10 50 28 68c18 18 41 28 68 28m0 64c-41 0-82-16-113-47c-63-62-63-164 0-226c0 0 113-111 113-239c0 128 113 239 113 239c63 62 63 164 0 226c-31 31-72 47-113 47z m32-160c0-18-14-32-32-32c-19 0-32 14-32 32c0 18 13 32 32 32c18 0 32-14 32-32z"/>
<glyph unicode="&#57409;" d="m512 320l-64 0l0 32c0 18-14 32-32 32l-384 0c-18 0-32-14-32-32l0-192c0-18 14-32 32-32l384 0c18 0 32 14 32 32l0 32l64 0z"/>
<glyph unicode="&#57410;" d="m208 1c-47 0-91 19-124 52c-34 33-52 77-52 124c0 47 18 91 52 125l178 174c48 48 132 48 180 0c50-50 50-131 0-181l-160-157c-31-30-81-31-113 1c-31 31-31 82 0 113l62 62l46-45l-62-62c-4-5-5-9-5-12c0-2 1-7 5-11c8-8 14-8 22 0l160 156c25 25 25 66 0 91c-24 24-66 24-90 0l-178-175c-21-21-33-49-33-79c0-30 12-58 33-79c42-42 116-42 158 0l80 80l45-45l-80-80c-33-33-77-52-124-52z"/>
<glyph unicode="&#57411;" d="m288 368c0-9-7-16-16-16c-9 0-16 7-16 16c0 9 7 16 16 16c9 0 16-7 16-16z m64 144l-192 0c-18 0-32-14-32-32l0-352c0-71 57-128 128-128c71 0 128 57 128 128l0 352c0 18-14 32-32 32z m-144-320c-8 0-15 7-15 16c0 8 7 15 15 15c9 0 16-7 16-15c0-9-7-16-16-16z m80-64c-18 0-32 14-32 32c0 18 14 32 32 32c18 0 32-14 32-32c0-18-14-32-32-32z m32 128l-31 0c0 18-15 32-32 32c-18 0-33-14-33-32l-32 0l0 192l128 0z"/>
<glyph unicode="&#57412;" d="m512 512l-384-256l96-64l-224-192l384 192l-96 64z"/>
<glyph unicode="&#57413;" d="m478 128c21 38 34 81 34 128c0 141-115 256-256 256c-141 0-256-115-256-256c0-141 115-256 256-256c71 0 135 29 181 75l-45 45c-35-34-83-56-136-56c-106 0-192 86-192 192c0 106 86 192 192 192c106 0 192-86 192-192c0-23-4-44-12-65l0 1l-52 0l0 191l-128 0c-71 0-128-57-128-128c0-70 57-128 128-128c29 0 56 11 78 27c11-15 29-26 50-26z m-158 160l0-33c0-35-29-64-64-64c-35 0-64 29-64 64c0 36 29 64 64 64l64 0z"/>
<glyph unicode="&#57414;" d="m512 384c0 71-57 128-128 128c-48 0-89-27-111-65c0 0 0 0 0 0c-6 0-12 1-18 1c-106 0-192-85-192-192c0-40 13-77 34-108l-97-148l149 97c30-21 67-33 107-33c106 0 192 86 192 192c0 6-2 11-2 17c39 21 66 63 66 111z m-256-256c-71 0-128 58-128 128c0 71 57 128 128 128c0 0 0 0 0 0c0 1 0 1 0 1c0-1 0-1 0-1c0-11 2-22 4-32l-50-51c-25-25-25-65 0-90c25-25 65-25 90 0l50 50c11-3 22-5 33-5c0-70-57-128-127-128z m128 192c-35 0-64 29-64 64c0 35 29 64 64 64c35 0 64-29 64-64c0-35-29-64-64-64z"/>
<glyph unicode="&#57416;" d="m384 352c-6 0-12-1-18-2c-22 40-63 66-110 66c-48 0-89-27-111-66c-6 1-11 2-17 2c-71 0-128-57-128-128c0-71 57-128 128-128l256 0c71 0 128 57 128 128c0 71-57 128-128 128z m0-192l-256 0c-35 0-64 29-64 64c0 35 31 62 64 63c0-15 3-30 8-44l60 23c-3 7-4 14-4 22c0 35 29 64 64 64c21 0 39-10 51-26c-31-24-51-60-51-102l64 0c0 35 29 64 64 64c35 0 64-29 64-64c0-35-29-64-64-64z"/>
<glyph unicode="&#57417;" d="m0 128l256-64l256 64l0-64l-256-64l-256 64z m0 128l256-64l256 64l0-64l-256-64l-256 64z m0 128l256-64l256 64l0-64l-256-64l-256 64z m0 128l256-64l256 64l0-64l-256-64l-256 64z"/>
<glyph unicode="&#57418;" d="m361 105l106-105l45 45l-105 106l41 41l-128 0l0-128z m-256 257l-41-42l127 1l1 127l-42-41l-105 105l-45-45z m-105-317l45-45l106 105l41-41l0 128l-128 0l41-41z m448 275l-41 42l105 105l-45 45l-105-105l-42 41l0-128z"/>
<glyph unicode="&#57419;" d="m512 64l0 384l-192-192l0-192z m-320 0l0 384l-192-192l0-192z"/>
<glyph unicode="&#57420;" d="m192 224l-96 0l0-64l-96 96l96 96l0-64l96 0z m128 64l96 0l0 64l96-96l-96-96l0 64l-96 0z"/>
<glyph unicode="&#57423;" d="m128 128c-71 0-128 57-128 128c0 71 57 128 128 128z m64 256l128 64l0-384l-128 64z m320-160l-128 0l0 64l128 0z"/>
<glyph unicode="&#57424;" d="m450 452c-79 80-217 80-296 0l-90-89l0 85l-64 0l0-192l192 0l0 63l-80 0l87 88c55 55 151 55 206 0c28-27 43-64 43-104c0-38-15-75-43-102l-48-49l45-45l48 48c40 40 62 93 62 148c0 57-22 110-62 149z m-155-452l-45 45l45 46l45-46z"/>
<glyph unicode="&#57425;" d="m256 512c-141 0-256-115-256-256l64 0c0 13 11 24 24 24c13 0 24-11 24-24l64 0c0 13 11 24 24 24c13 0 24-11 24-24l0-160c0-18-14-32-32-32c-18 0-32 14-32 32l-64 0c0-53 43-96 96-96c53 0 96 43 96 96l0 160c0 13 11 24 24 24c13 0 24-11 24-24l64 0c0 13 11 24 24 24c13 0 24-11 24-24l64 0c0 141-115 256-256 256z"/>
<glyph unicode="&#57426;" d="m493 493c-25 25-65 25-90 0l-242-242c21-5 41-16 58-33c16-16 27-36 32-57l242 242c25 25 25 65 0 90z m-320-410c25 25 25 65 0 90c-25 25-65 25-90 0l-83-173z"/>
<glyph unicode="&#57428;" d="m370 416c39 0 72-29 77-67l-191-219l-191 219c5 38 38 67 77 67c32 0 62-35 62-35l52-55l52 55c0 0 30 35 62 35m0 64c-48 0-88-25-114-62c-26 37-66 62-114 62c-78 0-142-64-142-142l0-12l256-294l256 294l0 12c0 78-64 142-142 142z"/>
<glyph unicode="&#57429;" d="m64 448c0-18-14-32-32-32c-18 0-32 14-32 32c0 18 14 32 32 32c18 0 32-14 32-32z m64 32l384 0l0-64l-384 0z m64-160c0-18-14-32-32-32c-18 0-32 14-32 32c0 18 14 32 32 32c18 0 32-14 32-32z m64 32l256 0l0-64l-256 0z m-64-288c0-18-14-32-32-32c-18 0-32 14-32 32c0 18 14 32 32 32c18 0 32-14 32-32z m64 32l256 0l0-64l-256 0z m64 96c0-18-14-32-32-32c-18 0-32 14-32 32c0 18 14 32 32 32c18 0 32-14 32-32z m64 32l128 0l0-64l-128 0z"/>
<glyph unicode="&#57430;" d="m288 192l0-96l64 0l-96-96l-96 96l64 0l0 96z m-64 128l0 96l-64 0l96 96l96-96l-64 0l0-96z"/>
<glyph unicode="&#57431;" d="m160 256c18 0 32-14 32-32l0-128c0-18-14-32-32-32l-32 0l0-64l256 0l0 64l-32 0c-18 0-32 14-32 32l0 224l-192 0l0-64z m160 192c0-35-29-64-64-64c-35 0-64 29-64 64c0 35 29 64 64 64c35 0 64-29 64-64z"/>
<glyph unicode="&#57432;" d="m64 512l128 0l0-512l-128 0z m256 0l128 0l0-512l-128 0z"/>
<glyph unicode="&#57434;" d="m256 160l32 32l0-96l64 0l-96-96l-96 96l64 0l0 96z m0 191l-32-31l0 96l-64 0l96 96l96-96l-64 0l0-96z"/>
<glyph unicode="&#57435;" d="m414 415l-45-46c30-30 47-70 47-113c0-88-72-160-160-160l0 32l-64-64l64-64l0 32c124 0 224 100 224 224c0 60-23 116-66 159z m-94 33l-64 64l0-32c-124 0-224-100-224-224c0-60 23-116 66-159l45 46c-30 30-47 70-47 113c0 88 72 160 160 160l0-32z"/>
<glyph unicode="&#57436;" d="m474 474c-24 26-57 38-90 38c-33 0-66-12-90-38l-294-292l0-182l181 0l293 294c50 50 50 130 0 180z m-320-410l-26 0l0 64l-64 0l0 27l275 274l90-90z"/>
<glyph unicode="&#57437;" d="m512 320l-192 0l0 192l-128 0l0-192l-192 0l0-128l192 0l0-192l128 0l0 192l192 0z"/>
<glyph unicode="&#57439;" d="m512 224l0 64l-76 32c-3 6-5 12-8 18l31 77l-45 45l-76-31c-6 2-12 5-18 7l-32 76l-64 0l-32-76c-6-2-13-4-19-7l-76 30l-45-45l31-75c-3-7-5-13-8-19l-75-32l0-64l75-32c3-6 5-13 8-19l-30-76l45-45l76 31c6-3 12-5 18-7l32-76l64 0l32 76c6 2 12 5 18 8l77-31l45 45l-32 76c3 6 5 12 7 18z m-256-64c-53 0-96 43-96 96c0 53 43 96 96 96c52 0 96-43 96-96c0-53-44-96-96-96z"/>
<glyph unicode="&#57440;" d="m402 219c0-80-65-146-146-146c-81 0-146 66-146 146c0 81 65 147 146 147l43-1l-21-21l52-52l109 110l-109 110l-52-52l21-21l-43 0c-121 0-219-98-219-220c0-121 98-219 219-219c121 0 219 98 219 219z"/>
<glyph unicode="&#57441;" d="m256 418c-26 37-66 62-114 62c-78 0-142-64-142-142l0-12l256-294l256 294l0 12c0 78-64 142-142 142c-48 0-88-25-114-62z"/>
<glyph unicode="&#57442;" d="m320 192l-32 0l0 288c0 18-14 32-32 32c-18 0-32-14-32-32l0-288l-32 0l0-64l32 0l0-96c0-18 14-32 32-32c18 0 32 14 32 32l0 96l32 0z m192 192l-32 0l0 96c0 18-14 32-32 32c-18 0-32-14-32-32l0-96l-32 0l0-64l32 0l0-288c0-18 14-32 32-32c18 0 32 14 32 32l0 288l32 0z m-384-64l-32 0l0 160c0 18-14 32-32 32c-18 0-32-14-32-32l0-160l-32 0l0-64l32 0l0-224c0-18 14-32 32-32c18 0 32 14 32 32l0 224l32 0z"/>
<glyph unicode="&#57443;" d="m512 448l-512 0l0 64l512 0z m-192-128l-320 0l0 64l320 0z m192-192l-512 0l0 64l512 0z m-128-128l-384 0l0 64l384 0z m128 32c0-18-14-32-32-32c-18 0-32 14-32 32c0 18 14 32 32 32c18 0 32-14 32-32z"/>
<glyph unicode="&#57445;" d="m256 512c-141 0-256-115-256-256c0-141 115-256 256-256c141 0 256 115 256 256c0 141-115 256-256 256z m0-319c-35 0-63 28-63 63c0 36 28 64 63 64c36 0 64-28 64-64c0-35-28-63-64-63z"/>
<glyph unicode="&#57447;" d="m503 503c-13 12-33 12-46 0l-65-66c-27 18-57 27-88 27c-41 0-83-16-113-47l-96-96c-55-55-62-139-20-201l-66-65c-12-13-12-33 0-46c7-6 15-9 23-9c8 0 16 3 23 9l65 66c26-18 57-27 88-27c40 0 82 16 113 47l96 96c55 55 61 139 20 201l66 65c12 13 12 33 0 46z m-103-199c0-26-10-50-28-68l-96-96c-18-18-44-28-68-28c-14 0-28 4-41 10l46 47c13 13 13 33 0 46c-11 12-31 12-44 0l-47-48c-6 13-10 26-10 41c0 26 10 50 28 68l95 96c18 18 43 28 69 28c14 0 28-4 41-10l-49-48c-12-13-12-33 0-46c7-6 15-9 23-9c8 0 16 3 23 9l48 49c6-13 10-26 10-41z"/>
<glyph unicode="&#57448;" d="m448 512l-256 0c-71 0-128-57-128-128c0-71 57-128 128-128l0-256l64 0l0 448l64 0l0-448l64 0l0 448l64 0z"/>
<glyph unicode="&#57450;" d="m480 320l0 64l-80 0l16 128l-64 0l-16-128l-128 0l16 128l-64 0l-16-128l-112 0l0-64l104 0l-16-128l-88 0l0-64l80 0l-16-128l64 0l16 128l128 0l-16-128l64 0l16 128l112 0l0 64l-104 0l16 128z m-168-128l-128 0l16 128l128 0z"/>
<glyph unicode="&#57451;" d="m256 512c-141 0-256-115-256-256c0-141 115-256 256-256c141 0 256 115 256 256c0 141-115 256-256 256z m-40-374l-117 118l45 45l72-73l154 154l45-45z"/>
<glyph unicode="&#57453;" d="m352 448c53 0 96-43 96-96c0-53-43-96-96-96c-5 0-10 1-17 2l-33 6l-24-24l-3-3l-19-19l0-26l-64 0l0-64l-64 0l0-64l-64 0l0 38l200 200l-6 33c-1 7-2 12-2 17c0 53 43 96 96 96m0 64c-88 0-160-72-160-160c0-10 1-20 3-29l-195-195l0-128l192 0l0 64l64 0l0 64l64 0l0 64l3 3c9-2 19-3 29-3c88 0 160 72 160 160c0 88-72 160-160 160z m32-160c0-18-14-32-32-32c-18 0-32 14-32 32c0 18 14 32 32 32c18 0 32-14 32-32z"/>
<glyph unicode="&#57454;" d="m256 448l0 64l-256 0l0-448c0-35 29-64 64-64l384 0c35 0 64 29 64 64l0 384z m-64 0l0-64l256 0l0-64l-384 0l0 128z m256-384l-384 0l0 192l384 0z"/>
<glyph unicode="&#57455;" d="m512 0l-384 256l384 256z m-512 448l128 0l0-384l-128 0z"/>
<glyph unicode="&#57457;" d="m474 293c50 50 50 131 0 181c-25 25-57 37-90 37c-33 0-65-12-90-37l-10-10l-47 48l-45-45l47-48l-239-239l0-116l63-64l119 0l238 238l46-46l45 46l-46 46z m-309-219c1 24-8 49-26 67c-17 17-39 25-61 26l206 207l91-90z"/>
<glyph unicode="&#57459;" d="m402 219c0-80-65-146-146-146c-81 0-146 66-146 146c0 81 65 147 146 147l74-1l0-73l109 110l-109 110l0-73l-74 0c-121 0-219-98-219-220c0-121 98-219 219-219c121 0 219 98 219 219z"/>
<glyph unicode="&#57460;" d="m339 288l91 155c-46 42-107 69-174 69c-16 0-31-2-47-5z m-20-96l184 0c5 21 9 42 9 64c0 62-23 118-60 162z m-55 160l-87 146c-72-23-130-76-158-146z m-14-192l86-146c72 24 129 77 157 146z m-56 160l-185 0c-5-21-9-42-9-64c0-62 23-119 60-163z m-19-95l-92-157c45-42 106-68 173-68c17 0 33 2 49 5z"/>
<glyph unicode="&#57461;" d="m384 416c-6 0-12-1-18-2c-22 40-63 66-110 66c-48 0-89-27-111-66c-6 1-11 2-17 2c-71 0-128-57-128-128c0-71 57-128 128-128l256 0c71 0 128 57 128 128c0 71-57 128-128 128z m0-192l-256 0c-35 0-64 29-64 64c0 35 31 62 64 63c0-15 3-30 8-44l60 23c-3 7-4 14-4 22c0 35 29 64 64 64c21 0 39-10 51-26c-31-24-51-60-51-102l64 0c0 35 29 64 64 64c35 0 64-29 64-64c0-35-29-64-64-64z m-332-183c-12-12-31-12-43 0c-12 12-12 31 0 43c12 12 87 44 87 44c0 0-32-75-44-87z m129 0c-12-12-32-12-44 0c-12 12-12 31 0 43c12 12 87 44 87 44c0 0-31-75-43-87z m127 0c-12-12-31-12-43 0c-12 12-12 31 0 43c12 12 87 44 87 44c0 0-32-75-44-87z"/>
<glyph unicode="&#57462;" d="m352 512l-192 0c-18 0-32-14-32-32l0-352c0-71 57-128 128-128c71 0 128 57 128 128l0 352c0 18-14 32-32 32z m-64-384c-18 0-32 14-32 32c0 18 14 32 32 32c18 0 32-14 32-32c0-18-14-32-32-32z m32 128l-31 0c0 18-15 32-32 32c-18 0-33-14-33-32l-32 0l0 192l128 0z"/>
<glyph unicode="&#57463;" d="m416 512l64 0l0-512l-64 0z m-128-128l64 0l0-384l-64 0z m-128-128l64 0l0-256l-64 0z m-128-128l64 0l0-128l-64 0z"/>
<glyph unicode="&#57465;" d="m128 128l0 128l64 64l64-64l128 128l128-128l0-128z m-64-64l0 448l-64-64l0-448l448 0l64 64z"/>
<glyph unicode="&#57467;" d="m75 75c-48 48-75 113-75 181c0 141 115 256 256 256l32-32l-32-32c-106 0-192-86-192-192c0-51 20-100 56-136l-39-5z m181-75l-32 32l32 32c106 0 192 86 192 192c0 51-20 100-56 136l39 5l6 40c48-48 75-113 75-181c0-141-115-256-256-256z"/>
<glyph unicode="&#57468;" d="m474 474c-24 26-57 38-90 38c-33 0-66-12-90-38l-294-292l0-182l181 0l293 294c50 50 50 130 0 180z m-320-410l0 0c25 25 25 66 0 91c-24 24-62 24-87 2l271 272l91-91z"/>
<glyph unicode="&#57469;" d="m192 128c0 35-29 64-64 64c-35 0-64-29-64-64l0 0c0-47-26-89-64-111l0 0c19-11 41-17 64-17c71 0 128 57 128 128z m301 365c-25 25-65 25-90 0l-242-242c44-12 79-46 90-90l242 242c25 25 25 65 0 90z"/>
<glyph unicode="&#57470;" d="m288 512l-224 0l0-512l384 0l0 352z m-33-192l0 128l128-128z"/>
<glyph unicode="&#57473;" d="m0 160l256-64l256 64l0-64l-256-64l-256 64z m0 128l256-64l256 64l0-64l-256-64l-256 64z m0 128l256 64l256-64l0-64l-256-64l-256 64z"/>
<glyph unicode="&#57474;" d="m256 448c106 0 192-86 192-192c0-106-86-192-192-192c-106 0-192 86-192 192c0 106 86 192 192 192m0 64c-141 0-256-115-256-256c0-141 115-256 256-256c141 0 256 115 256 256c0 141-115 256-256 256z m34-222c13-13 16-31 12-47l82 141l-139-82c15 4 33 0 45-12z m-68-68c-12 12-16 30-12 45l-82-139l141 83c-16-5-34-2-47 11z"/>
<glyph unicode="&#57475;" d="m288 512c-88 0-160-72-160-160l64 0c0 53 43 96 96 96c53 0 96-43 96-96l0-32l-320 0l0-224c0-53 43-96 96-96l192 0c53 0 96 43 96 96l0 256c0 88-72 160-160 160z m64-448l-192 0c-18 0-32 14-32 32l0 160l256 0l0-160c0-18-14-32-32-32z m-64 96c0-18-14-32-32-32c-18 0-32 14-32 32c0 18 14 32 32 32c18 0 32-14 32-32z"/>
<glyph unicode="&#57476;" d="m0 320l512 0l0-320l-512 0z m288 64l224 0l-64 128l-160 0z m-64 128l-160 0l-64-128l224 0z"/>
<glyph unicode="&#57478;" d="m0 448l0-384l192 192l0 192z m320 0l0-384l192 192l0 192z"/>
<glyph unicode="&#57479;" d="m0 512l384-256l-384-256z m384-64l128 0l0-384l-128 0z"/>
<glyph unicode="&#57482;" d="m256 192c-23 0-44 5-64 12l0-204l64 64l64-64l0 204c-20-7-41-12-64-12z m128 192c0-71-57-128-128-128c-71 0-128 57-128 128c0 71 57 128 128 128c71 0 128-57 128-128z"/>
<glyph unicode="&#57484;" d="m474 474c-49 50-131 50-180 0l-294-292l0-182l181 0l293 294c50 50 50 130 0 180z m-320-410l-91 0l0 91c25 25 66 25 91 0c25-25 25-66 0-91z m274 275l-90 90c25 25 65 25 90 0c25-25 25-65 0-90z"/>
<glyph unicode="&#57485;" d="m288 512c-88 0-160-72-160-160l0-32l-64 0l0-224c0-53 43-96 96-96l192 0c53 0 96 43 96 96l0 256c0 88-72 160-160 160z m-32-384c-18 0-32 14-32 32c0 18 14 32 32 32c18 0 32-14 32-32c0-18-14-32-32-32z m128 192l-192 0l0 32c0 53 43 96 96 96c53 0 96-43 96-96z"/>
<glyph unicode="&#57486;" d="m512 0l-512 0l0 448l64 0l0-384l384 0l0 384l64 0z m-416 320l64 0l0-64l-64 0z m128 0l64 0l0-64l-64 0z m128 0l64 0l0-64l-64 0z m-256-128l64 0l0-64l-64 0z m128 0l64 0l0-64l-64 0z m128-64l0 64l64 0z m-224 288l0 64c0 18 14 32 32 32c18 0 32-14 32-32l0-64c0-18-14-32-32-32c-18 0-32 14-32 32z m192 0l0 64c0 18 14 32 32 32c18 0 32-14 32-32l0-64c0-18-14-32-32-32c-18 0-32 14-32 32z"/>
<glyph unicode="&#57487;" d="m256 512c-141 0-256-115-256-256c0-141 115-256 256-256c141 0 256 115 256 256c0 141-115 256-256 256z m32-352l32 0l-64-64l-64 64l32 0l0 192l-32 0l64 64l64-64l-32 0z"/>
<glyph unicode="&#57488;" d="m256 512c-141 0-256-115-256-256c0-141 115-256 256-256c141 0 256 115 256 256c0 141-115 256-256 256z m0-64c83 0 154-54 180-128l-360 0c26 74 97 128 180 128z m0-224c-18 0-32 14-32 32c0 18 14 32 32 32c18 0 32-14 32-32c0-18-14-32-32-32z m-192 32c87 0 158-84 160-189c-91 16-160 94-160 189z m224-189c2 105 73 189 160 189c0-95-69-173-160-189z"/>
<glyph unicode="&#57490;" d="m0 320l512 0l0-128l-512 0z"/>
<glyph unicode="&#57493;" d="m256 512c-71 0-128-57-128-128c0-71 128-384 128-384c0 0 128 313 128 384c0 71-57 128-128 128z m0-192c-35 0-64 29-64 64c0 35 29 64 64 64c35 0 64-29 64-64c0-35-29-64-64-64z"/>
<glyph unicode="&#57494;" d="m256 448c-141 0-256-190-256-190c0 0 115-194 256-194c141 0 256 194 256 194c0 0-115 190-256 190z m0-320c-71 0-128 57-128 128c0 71 57 128 128 128c71 0 128-57 128-128c0-71-57-128-128-128z m64 128c0-36-29-64-64-64c-35 0-64 28-64 64c0 35 29 64 64 64c35 0 64-29 64-64z"/>
<glyph unicode="&#57495;" d="m416 448l0-33c0-35-29-64-64-64c-35 0-64 29-64 64l0 33l-64 0l0-33c0-35-29-64-64-64c-35 0-64 29-64 64l0 33l-96 0l0-448l512 0l0 448z m-256-384l-64 0l0 64l64 0z m0 128l-64 0l0 64l64 0z m128-128l-64 0l0 64l64 0z m0 128l-64 0l0 64l64 0z m64-128l0 64l64 0z m64 128l-64 0l0 64l64 0z m-288 224l0 64c0 18 14 32 32 32c18 0 32-14 32-32l0-64c0-18-14-32-32-32c-18 0-32 14-32 32z m192 0l0 64c0 18 14 32 32 32c18 0 32-14 32-32l0-64c0-18-14-32-32-32c-18 0-32 14-32 32z"/>
<glyph unicode="&#57496;" d="m256 512c-141 0-256-115-256-256c0-141 115-256 256-256c141 0 256 115 256 256c0 141-115 256-256 256z m-96-384l0 256l256-128z"/>
<glyph unicode="&#57497;" d="m439 119l-74 73l-45-45l73-74l-73-73l192 0l0 192z m-247 393l-192 0l0-192l73 73l73-72l45 45l-72 73z m0-365l-45 45l-74-73l-73 73l0-192l192 0l-73 73z m320 365l-192 0l73-73l-72-73l45-45l73 72l73-73z"/>
<glyph unicode="&#57499;" d="m288 288l93 0c-12 46-47 81-93 93z m0-64l0-93c46 12 81 47 93 93z m-64 64l0 93c-46-12-81-47-93-93z m0-64l-93 0c12-46 47-81 93-93z m64 223c82-14 145-77 159-159l65 0c-15 117-107 209-224 224z m-223-159c14 82 77 145 159 159l0 65c-117-15-209-107-224-224z m159-223c-82 14-145 77-159 159l-65 0c15-117 107-209 224-224z m223 159c-14-82-77-145-159-159l0-65c117 15 209 107 224 224z"/>
<glyph unicode="&#57500;" d="m320 259c0-36-29-64-64-64c-35 0-64 28-64 64c0 35 29 64 64 64c35 0 64-29 64-64z m137 156c-6-4-12-7-20-7c-18 0-32 14-32 32c0 7 3 14 8 20c-36 27-79 46-126 52c-1-16-14-29-31-29c-17 0-30 13-31 29c-48-6-91-25-127-53c4-6 7-12 7-19c0-18-14-32-32-32c-7 0-13 2-19 6c-33-43-54-96-54-155c0-142 115-256 256-256c141 0 256 114 256 256c0 59-21 113-55 156z m-201-284c-71 0-128 57-128 128c0 35 14 67 38 90l90 91l90-91c24-23 38-55 38-90c0-71-57-128-128-128z"/>
<glyph unicode="&#57501;" d="m255 0c-41 0-79 14-108 43c-57 58-57 151 0 209l133 127c8 7 12 17 12 28c0 11-4 21-12 29c-16 16-45 16-61 0c-16-16-16-42 0-58l-45-45c-41 41-41 107 0 148c41 41 111 41 151 0c20-19 31-46 31-74c0-28-11-54-31-74l-133-127c-32-32-32-85 0-118c33-32 89-32 122 0c33 33 33 86 0 118l-23 23l70 70l42-46l-27-26c36-57 30-134-17-184c-28-29-66-43-104-43z"/>
<glyph unicode="&#57502;" d="m282 32c0-18-15-32-32-32c-18 0-32 14-32 32c0 18 14 32 32 32c17 0 32-14 32-32z m-31 64c-22 0-42 9-57 24c-15 18-23 38-23 59c0 21 8 41 23 54l107 107c12 12 19 28 19 45c0 17-7 33-19 45c-25 25-65 25-90 0c-12-12-19-28-19-45l-64 0c0 34 13 67 38 91c48 48 132 48 181 0c24-24 37-57 37-91c0-34-13-66-38-90l-107-105c-6-6-6-16 0-22c7-7 17-7 23 0c4 4 5 9 5 11l64 0c0-21-9-41-24-59c-15-15-35-24-56-24z"/>
<glyph unicode="&#57503;" d="m94 366c14-144 128-258 272-272c-31-19-67-30-104-30c-109 0-198 89-198 198c0 37 11 73 30 104m96 146c-110-32-190-131-190-250c0-145 117-262 262-262c119 0 219 80 250 190c-35-21-75-33-118-33c-131 0-237 106-237 237c0 43 12 83 33 118z"/>
<glyph unicode="&#57504;" d="m448 384l-64 0l64 64l-63 64l-89 0l64-64l-65-64l-76 0l65 64l-64 64l-91 0l64-64l-65-64l-64 0l64 64l-64 64l-64 0l0-512l512 0l0 512l-63 0l63-64z m0-319l-384 0l0 64l384 0z m0 127l-384 0l0 64l384 0z"/>
<glyph unicode="&#57506;" d="m448 320l0 32c0 18-14 32-32 32l-384 0c-18 0-32-14-32-32l0-65l102 0c13 37 49 64 90 64l0-31l64 0l0-32l-64 0l0-64l65 0l0-32l-65 0l0-33c-41 0-77 27-90 64l-102 0l0-63c0-18 14-32 32-32l384 0c18 0 32 14 32 32l0 32l64 0l0 128z"/>
<glyph unicode="&#57509;" d="m352 512l-352 0l0-511l129 105l128-106l128 106l127-106l0 352z m96-383l-63 52l-128-106l-128 105l-65-51c0 0 0 278 0 320c34 0 125 0 192 0l0-192l192 0c0-44 0-128 0-128z m-128 192c0 25 0 95 0 128c26-26 103-102 128-128c-32 0-103 0-128 0z"/>
<glyph unicode="&#57510;" d="m288 512l-224 0l0-512l384 0l0 352z m-160-448l0 384l128 0l0-128l128 0l0-256z"/>
<glyph unicode="&#57513;" d="m256 448c53 0 96-43 96-96c0-31-14-59-38-77c-36-27-51-57-56-83l-4 0c-5 26-20 56-56 83c-24 18-38 46-38 77c0 53 43 96 96 96m0 64c-88 0-160-72-160-160c0-53 25-99 64-128c17-14 32-31 32-55l0-41l128 0l0 41c0 24 15 41 32 55c39 29 64 75 64 128c0 88-72 160-160 160z m-64-448l128 0l0-64l-128 0z"/>
<glyph unicode="&#57514;" d="m383 448l0 64l-64 0l0-64l-128 0l0 64l-64 0l0-64l-127 0l0-64l512 0l0 64z m-319-256l384 0l0-64l-384 0z m0 128l384 0l0-64l-384 0z m320-320l-320 0l0 64l384 0z"/>
<glyph unicode="&#57515;" d="m288 512c-88 0-160-72-160-160l64 0c0 53 43 96 96 96c53 0 96-43 96-96l0-32l-320 0l0-224c0-53 43-96 96-96l192 0c53 0 96 43 96 96l0 256c0 88-72 160-160 160z m-32-384c-18 0-32 14-32 32c0 18 14 32 32 32c18 0 32-14 32-32c0-18-14-32-32-32z"/>
<glyph unicode="&#57516;" d="m512 320l-64 0l0 32c0 18-14 32-32 32l-384 0c-18 0-32-14-32-32l0-192c0-18 14-32 32-32l384 0c18 0 32 14 32 32l0 32l64 0z m-128-128l-320 0l0 128l320 0z"/>
<glyph unicode="&#57519;" d="m256 320c35 0 64-29 64-64c0-35-29-64-64-64c-35 0-64 29-64 64c0 35 29 64 64 64m0 64c-71 0-128-57-128-128c0-71 57-128 128-128c71 0 128 57 128 128c0 71-57 128-128 128z m32 96c0-18-14-32-32-32c-18 0-32 14-32 32c0 18 14 32 32 32c18 0 32-14 32-32z m-160-64c0-18-14-32-32-32c-18 0-32 14-32 32c0 18 14 32 32 32c18 0 32-14 32-32z m-96-128c18 0 32-14 32-32c0-18-14-32-32-32c-18 0-32 14-32 32c0 18 14 32 32 32z m96-192c0-18-14-32-32-32c-18 0-32 14-32 32c0 18 14 32 32 32c18 0 32-14 32-32z m96-64c0 18 14 32 32 32c18 0 32-14 32-32c0-18-14-32-32-32c-18 0-32 14-32 32z m170 41c-13 13-13 33 0 46c12 12 32 12 45 0c12-13 12-33 0-46c-13-12-33-12-45 0z m86 151c-18 0-32 14-32 32c0 18 14 32 32 32c18 0 32-14 32-32c0-18-14-32-32-32z m-41 169c-13-12-33-12-45 0c-13 13-13 33 0 46c12 12 32 12 45 0c12-13 12-33 0-46z"/>
<glyph unicode="&#57520;" d="m249 201l-170 169c-84-97-84-241 0-338z m25 23l0 288c-80-5-151-35-208-82z m31 224l0-237l-167-166c37-28 82-45 133-45c125 0 225 101 225 226c0 113-82 205-191 222z"/>
<glyph unicode="&#57521;" d="m512 320l-64 0l0 32c0 18-14 32-32 32l-384 0c-18 0-32-14-32-32l0-192c0-18 14-32 32-32l384 0c18 0 32 14 32 32l0 32l64 0z m-128-128l-128 0l0 128l128 0z"/>
<glyph unicode="&#57522;" d="m288 512c-88 0-160-72-160-160l0-32l-64 0l0-224c0-53 43-96 96-96l192 0c53 0 96 43 96 96l0 256c0 88-72 160-160 160z m-96-160c0 53 43 96 96 96c53 0 96-43 96-96l0-32l-192 0z m160-288l-192 0c-18 0-32 14-32 32l0 160l256 0l0-160c0-18-14-32-32-32z m-64 96c0-18-14-32-32-32c-18 0-32 14-32 32c0 18 14 32 32 32c18 0 32-14 32-32z"/>
<glyph unicode="&#57523;" d="m256 416c0 0-64 64-256 64l0-384c194 0 256-64 256-64c0 0 62 64 256 64l0 384c-192 0-256-64-256-64z m-192 0c81-7 131-26 160-41l0-258c-29 16-79 34-160 41z m384-258c-81-7-131-25-160-41l0 258c29 15 79 34 160 41z"/>
<glyph unicode="&#57524;" d="m416 256l-96-96l64 0c0-18-14-32-32-32l-192 0c-18 0-32 14-32 32l0 32l-64 0l0-32c0-53 43-96 96-96l192 0c53 0 96 43 96 96l64 0z m-64 192l-192 0c-53 0-96-43-96-96l0-1l-64 0l96-95l96 95l-64 0l0 1c0 18 14 32 32 32l192 0c18 0 32-14 32-32l0-32l64 0l0 32c0 53-43 96-96 96z"/>
<glyph unicode="&#57528;" d="m393 73l74-73l45 45l-73 74l73 73l-192 0l0-192z m-393 247l192 0l0 192l-73-73l-73 72l-45-45l72-73z m0-275l45-45l74 73l73-73l0 192l-192 0l73-73z m320 275l192 0l-73 73l72 73l-45 45l-73-72l-73 73z"/>
<glyph unicode="&#57529;" d="m128 128c-71 0-128 57-128 128c0 71 57 128 128 128z m64 256l128 64l0-384l-128 64z m192-256l0 64c5 0 11 1 16 2c28 7 48 33 48 62c0 29-20 55-48 62c-5 1-11 2-16 2l0 64c11 0 21-1 31-4c57-14 97-65 97-124c0-59-40-110-96-124c-11-3-22-4-32-4z"/>
<glyph unicode="&#57533;" d="m256 256c35 0 64 29 64 64l0 128c0 35-29 64-64 64c-35 0-64-29-64-64l0-128c0-35 29-64 64-64z m64-192l-32 0l0 67c91 16 160 94 160 189l0 31c0 18-14 32-32 32c-18 0-32-14-32-32l0-31c0-71-57-128-128-128c-71 0-128 57-128 128l0 31c0 18-14 32-32 32c-18 0-32-14-32-32l0-31c0-95 69-173 160-189l0-67l-32 0c-35 0-64-29-64-64l256 0c0 35-29 64-64 64z"/>
<glyph unicode="&#57536;" d="m0 448l0-192l128 0c0-71-57-128-128-128l0-64c106 0 192 86 192 192l0 192z m320 0l0-192l128 0c0-71-57-128-128-128l0-64c106 0 192 86 192 192l0 192z"/>
<glyph unicode="&#57537;" d="m64 512l384-256l-384-256z"/>
<glyph unicode="&#57540;" d="m512 32c0-18-14-32-32-32l-448 0c-18 0-32 14-32 32l0 288l512 0z m-320 416l0 64l-192 0l0-128l512 0l0 64z"/>
<glyph unicode="&#57541;" d="m394 157c-131 0-237 106-237 237c0 43 12 83 33 118c-110-32-190-131-190-250c0-145 117-262 262-262c119 0 219 80 250 190c-35-21-75-33-118-33z"/>
<glyph unicode="&#57543;" d="m256 512l-256-256l64 0l0-256l384 0l0 256l64 0z m128-448l-96 0l0 96l-64 0l0-96l-96 0l0 230l128 90l128-90z"/>
<glyph unicode="&#57544;" d="m384 192c0-35-29-64-64-64c-35 0-64 29-64 64c0 35 29 64 64 64c35 0 64-29 64-64z m64 192l-53 106c-4 13-16 22-30 22l-88 0c-14 0-26-9-30-22l-55-106l-128 0c-35 0-64-29-64-64l0-320l512 0l0 320c0 35-29 64-64 64z m-352-128c-18 0-32 14-32 32c0 18 14 32 32 32c18 0 32-14 32-32c0-18-14-32-32-32z m224-192c-71 0-128 57-128 128c0 71 57 128 128 128c71 0 128-57 128-128c0-71-57-128-128-128z"/>
<glyph unicode="&#57545;" d="m354 198l158 122l-192 0l-64 192l-64-192l-192 0l158-122l-62-198l160 123l160-123z"/>
<glyph unicode="&#57546;" d="m512 448l-512 0l0 64l512 0z m-192-128l-320 0l0 64l320 0z m192-129l-512 0l0 64l512 0z m-448-159c0-18-14-32-32-32c-18 0-32 14-32 32c0 18 14 32 32 32c18 0 32-14 32-32z m128 0c0-18-14-32-32-32c-18 0-32 14-32 32c0 18 14 32 32 32c18 0 32-14 32-32z m128 0c0-18-14-32-32-32c-18 0-32 14-32 32c0 18 14 32 32 32c18 0 32-14 32-32z"/>
<glyph unicode="&#57547;" d="m346 512l-346 0l0-512l128 106l128-106l128 106l128-106l0 347z m-58-224l0 160l160-160z"/>
<glyph unicode="&#57553;" d="m96 448l211 0l109-109l0-275l-320 0z m-64 64l0-512l448 0l0 365l-147 147z m96-416l256 0l0 224l-256 0z m128 192l96 0l0-64l-96 0z m0-96l96 0l0-64l-96 0z m-96 96l64 0l0-64l-64 0z m0-96l64 0l0-64l-64 0z"/>
<glyph unicode="&#57554;" d="m88 109l168 196l168-196l48 42l-216 252l-216-252z"/>
<glyph unicode="&#57555;" d="m416 352c0 88-72 160-160 160c-88 0-160-72-160-160c0-77 55-142 128-157l0-67l-64 0l0-64l64 0l0-64l64 0l0 64l64 0l0 64l-64 0l0 67c73 15 128 80 128 157m-160-96c-53 0-96 43-96 96c0 53 43 96 96 96c53 0 96-43 96-96c0-53-43-96-96-96"/>
<glyph unicode="&#57556;" d="m128 160c-35 0-64-29-64-64c0-35 29-64 64-64c35 0 64 29 64 64c0 35-29 64-64 64m288 0c-35 0-64-29-64-64c0-35 29-64 64-64c35 0 64 29 64 64c0 35-29 64-64 64m80 320l-320 0c-9 0-16-7-16-16l0-48l-80 0c-9 0-19-6-23-14l-50-100c-4-8-7-21-7-30l0-96c0-9 5-21 11-27l10-10c4-4 11-7 17-9c14 36 49 62 90 62c42 0 77-27 90-64l108 0c13 37 48 64 90 64c40 0 75-25 89-61c4 3 7 8 7 13l0 320c0 9-7 16-16 16m-336-192l-96 0l32 96l64 0z"/>
<glyph unicode="&#57557;" d="m112 512l-96 0c-9 0-16-7-16-16l0-96c0-9 7-16 16-16l96 0c9 0 16 7 16 16l0 96c0 9-7 16-16 16m0-192l-96 0c-9 0-16-7-16-16l0-96c0-9 7-16 16-16l96 0c9 0 16 7 16 16l0 96c0 9-7 16-16 16m0-192l-96 0c-9 0-16-7-16-16l0-96c0-9 7-16 16-16l96 0c9 0 16 7 16 16l0 96c0 9-7 16-16 16m192 384l-96 0c-9 0-16-7-16-16l0-96c0-9 7-16 16-16l96 0c9 0 16 7 16 16l0 96c0 9-7 16-16 16m0-192l-96 0c-9 0-16-7-16-16l0-96c0-9 7-16 16-16l96 0c9 0 16 7 16 16l0 96c0 9-7 16-16 16m0-192l-96 0c-9 0-16-7-16-16l0-96c0-9 7-16 16-16l96 0c9 0 16 7 16 16l0 96c0 9-7 16-16 16m192 384l-96 0c-9 0-16-7-16-16l0-96c0-9 7-16 16-16l96 0c9 0 16 7 16 16l0 96c0 9-7 16-16 16m0-192l-96 0c-9 0-16-7-16-16l0-96c0-9 7-16 16-16l96 0c9 0 16 7 16 16l0 96c0 9-7 16-16 16m0-192l-96 0c-9 0-16-7-16-16l0-96c0-9 7-16 16-16l96 0c9 0 16 7 16 16l0 96c0 9-7 16-16 16"/>
<glyph unicode="&#57559;" d="m111 10c-20 0-39 9-57 27l-3 3c-19 18-96 83 0 172c40 37 89 90 143 144c30 29 60 59 90 89c55 55 95 42 157-17c73-69 87-138 55-175c-42-48-201-207-208-214c-9-9-23-9-32 0c-9 9-9 23 0 32c1 2 164 165 205 212c10 11 11 52-51 112c-37 35-47 64-93 18c-31-30-61-61-90-90c-55-53-105-105-143-142c-59-60-21-89-1-109l3-3c17-16 31-21 55 4c7 6 21 20 39 37c49 48 141 138 160 161c6 7 14 25 6 32c-11 10-32-10-38-16c-65-68-149-149-150-150c-9-8-23-8-32 1c-9 9-8 24 1 32c1 1 84 81 148 148c41 44 79 39 101 20c26-24 20-69-1-96c-19-23-91-94-163-164c-18-17-32-31-39-38c-20-20-41-30-62-30"/>
<glyph unicode="&#57562;" d="m491 449l-36 35l-79-91c-40 37-93 60-152 60c-123 0-224-101-224-224c0-124 101-224 224-224c124 0 224 100 224 224c0 44-13 85-35 120z m-75-220c0-106-86-192-192-192c-106 0-192 86-192 192c0 106 86 192 192 192c51 0 97-20 131-52l-138-160l-103 103l-34-68l106-120l25-31l26 30l155 199c15-28 24-60 24-93"/>
<glyph unicode="&#57563;" d="m69 137c-38 0-69-31-69-69c0-37 31-68 69-68c38 0 68 31 68 68c0 38-30 69-68 69m-64 199l0-90c64-1 124-26 169-72c45-46 71-106 72-170l90 0c-2 182-150 330-331 332m0 176l0-90c229-2 414-189 417-418l90 0c-3 279-229 506-507 508"/>
<glyph unicode="&#57564;" d="m32 192l448 0l0-96l-448 0z m64 256l-96-224l0-160l512 0l0 160l-96 224z m320-288l32 0l0-32l-32 0z"/>
<glyph unicode="&#57565;" d="m448 512l-384 0c-18 0-32-14-32-32l0-448c0-18 14-32 32-32l384 0c18 0 32 14 32 32l0 448c0 18-14 32-32 32m-368-32c9 0 16-7 16-16c0-9-7-16-16-16c-9 0-16 7-16 16c0 9 7 16 16 16m176-352c-2 0-3 0-5 1c-31-59-42-70-46-74c-18-18-41-28-65-28c-21 0-40 8-54 22c-14 14-22 34-22 55c0 23 10 46 27 64c7 6 19 15 37 25c-20 27-32 59-32 95c0 88 72 160 160 160c88 0 160-72 160-160c0-88-72-160-160-160m192-80c0-9-7-16-16-16c-9 0-16 7-16 16l0 32c0 9 7 16 16 16c9 0 16-7 16-16z m-16 400c-9 0-16 7-16 16c0 9 7 16 16 16c9 0 16-7 16-16c0-9-7-16-16-16m-176-128c-18 0-32-14-32-32c0-18 14-32 32-32c18 0 32 14 32 32c0 18-14 32-32 32m-28-120c-49-25-96-50-107-62c-10-9-15-22-15-34c0-10 3-19 9-25c7-7 16-10 25-10c13 0 26 5 35 15c10 10 32 49 62 107c1 3 0 6-2 8c-2 2-5 2-7 1"/>
<glyph unicode="&#57567;" d="m464 288l-27 0l-10 32l37 0c9 0 16 7 16 16c0 9-7 16-16 16l-48 0l-22 66c-5 16-24 30-42 30l-192 0c-18 0-37-14-42-30l-22-66l-48 0c-9 0-16-7-16-16c0-9 7-16 16-16l37 0l-10-32l-27 0c-9 0-16-7-16-16l0-96c0-9 7-16 16-16l16 0l0-64c0-18 14-32 32-32l32 0c18 0 32 14 32 32l0 64l192 0l0-64c0-18 14-32 32-32l32 0c18 0 32 14 32 32l0 64l16 0c9 0 16 7 16 16l0 96c0 9-7 16-16 16m-316 119c1 4 8 9 12 9l64 0l0-16c0-9 7-16 16-16l32 0c9 0 16 7 16 16l0 16l64 0c4 0 11-5 12-9l40-119l-296 0z m-20-215c-18 0-32 14-32 32c0 18 14 32 32 32c18 0 32-14 32-32c0-18-14-32-32-32m192 0l-128 0l0 32l128 0z m64 0c-18 0-32 14-32 32c0 18 14 32 32 32c18 0 32-14 32-32c0-18-14-32-32-32"/>
<glyph unicode="&#57568;" d="m257 512l-96-128l63 0l0-96l-96 0l0 64l-128-96l128-96l0 64l96 0l0-96l-63 0l96-128l96 128l-65 0l0 96l96 0l0-64l128 96l-128 96l0-64l-96 0l0 96l65 0z"/>
<glyph unicode="&#57569;" d="m384 320c-53 0-96-43-96-96c0-28 13-53 32-71l0-153l64 64l64-64l0 153c20 18 32 43 32 71c0 53-43 96-96 96m0-160c-35 0-64 29-64 64c0 35 29 64 64 64c35 0 64-29 64-64c0-35-29-64-64-64m-170-96l-150 0l0 384l179 0l96-96l77 0l0 13l-147 147l-269 0l0-512l275 0l-60 63z m-118 288l160 0l0-32l-160 0z m0-64l160 0l0-32l-160 0z m0-64l160 0l0-32l-160 0z"/>
<glyph unicode="&#57570;" d="m96 448l211 0l109-109l0-275l-320 0z m-64 64l0-512l448 0l0 365l-147 147z m192-262l-96-96l0-45l96 96l64-64l96 96l0 45l-96-96z"/>
<glyph unicode="&#57571;" d="m256 480l0-64l115 0l-123-123c-25 17-55 27-88 27c-88 0-160-72-160-160c0-88 72-160 160-160c88 0 160 72 160 160c0 33-10 63-27 88l123 123l0-115l64 0l0 224z m-96-416c-53 0-96 43-96 96c0 53 43 96 96 96c53 0 96-43 96-96c0-53-43-96-96-96"/>
<glyph unicode="&#57573;" d="m352 352l0 128l-320 0l0-320l128 0l0-128l320 0l0 320z m96-288l-256 0l0 256l256 0z"/>
<glyph unicode="&#57574;" d="m96 448l211 0l109-109l0-275l-320 0z m-64 64l0-512l448 0l0 365l-147 147z m160-381l170 96l-170 96z"/>
<glyph unicode="&#57575;" d="m352 512l-352-352l160 0l0-160l352 352z"/>
<glyph unicode="&#57576;" d="m224 352l-64 64l-128 0l0-320l416 0l0 256z"/>
<glyph unicode="&#57577;" d="m384 448l-64 0c0 35-29 64-64 64c-35 0-64-29-64-64l-64 0l0-64l256 0l0 64z m-128-32c-18 0-32 14-32 32c0 18 14 32 32 32c18 0 32-14 32-32c0-18-14-32-32-32m160 32l0-96l-320 0l0 96l-64 0l0-448l448 0l0 448z m-175-380l-22 23l-91 91l45 45l68-68l129 129l46-45z"/>
<glyph unicode="&#57579;" d="m476 354c2 10 4 20 4 30c0 71-57 128-128 128c-50 0-92-29-114-70c-9 4-19 6-30 6c-43 0-78-34-80-77c-38-17-64-48-64-83l0-2c21 21 49 34 80 34c5 0 11 0 16-1c30 41 77 65 128 65c88 0 160-72 160-160c0-6 0-12-1-18l1-1c38 17 64 48 64 83c0 26-14 49-36 66m-64-192c2 10 4 20 4 30c0 71-57 128-128 128c-50 0-92-29-114-70c-9 4-19 6-30 6c-43 0-78-34-80-77c-38-17-64-48-64-83c0-53 58-96 128-96l192 0c70 0 128 43 128 96c0 26-14 49-36 66"/>
<glyph unicode="&#57581;" d="m333 210l-49 0c-3 10-7 19-12 27l33 32c7 8 7 20 0 28l-14 14c-8 7-20 7-28 0l-33-33c-9 5-19 9-29 11l0 43c0 11-9 20-19 20l-20 0c-11 0-20-9-20-20l0-43c-11-2-21-7-31-13l-28 28c-7 8-20 8-27 0l-14-14c-8-8-8-20 0-28l28-28c-6-10-10-22-13-34l-37 0c-11 0-19-8-19-19l0-20c0-10 8-19 19-19l40 0c3-12 9-23 15-33l-26-26c-8-8-8-20 0-28l14-14c7-7 20-7 27 0l30 30c10-5 21-9 32-11l0-40c0-11 9-20 20-20l19 0c11 0 20 9 20 20l0 46c10 3 19 8 28 14l31-32c8-8 20-8 28 0l14 14c7 8 7 20-1 28l-34 34c4 9 7 18 10 28l46 0c11 0 20 8 20 19l0 20c0 10-9 19-20 19m-161-83c-27 0-49 22-49 49c0 27 22 49 49 49c27 0 49-22 49-49c0-27-22-49-49-49m328 295l-31 0c-2 6-5 11-8 17l21 20c5 5 5 13 0 18l-9 9c-5 5-12 5-17 0l-21-21c-6 3-12 5-19 7l0 28c0 6-5 12-12 12l-13 0c-7 0-12-6-12-12l0-28c-7-2-14-4-20-8l-18 17c-5 5-13 5-17 0l-9-8c-5-5-5-13 0-18l18-18c-4-7-7-14-8-21l-24 0c-7 0-12-6-12-13l0-12c0-7 5-13 12-13l25 0c2-7 6-14 10-20l-17-17c-5-5-5-13 0-18l9-9c5-5 13-5 18 0l19 19c6-3 13-5 20-7l0-26c0-6 6-12 13-12l12 0c7 0 12 6 12 12l0 30c7 2 13 5 18 9l20-20c5-5 13-5 18 0l8 8c5 5 5 13 0 18l-22 22c3 5 5 11 7 17l29 0c7 0 13 6 13 13l0 12c0 7-6 13-13 13m-102-53c-18 0-32 14-32 31c0 17 14 31 32 31c17 0 31-14 31-31c0-17-14-31-31-31"/>
<glyph unicode="&#57583;" d="m96 448l320 0l-6-64l-223 0l5-64l211 0l-19-192l-128-32l-128 32l-10 96l74 0l7-48l57-16l64 16l8 80l-213 0z m-96 64l64-448l192-64l192 64l64 448z"/>
<glyph unicode="&#57585;" d="m363 90c-22 40-66 118-114 179c0 0-61 2-65 4c39-53 80-121 92-178c-102-4-188-42-227-95l463 0c-32 44-78 78-149 90m-282 261c-22-39-33-89 8-191c0 53 38 136 64 160c32 0 64-32 64-32c0 32-9 49-21 69c50 2 127-5 149-69c-32 96-96 128-128 128c32 32 32 32 96 32c-99 74-159 16-182-16c-10 22-10 58-10 80c0 0-33-33-40-76c-40 12-81 44-81 44c15-14 32-64 45-71c-52-41-45-153-45-153c30 59 51 90 81 95"/>
<glyph unicode="&#57586;" d="m448 501l-376 0l128-64l216 0l0-32l-152 0l42-21c17-9 31-25 39-43l71 0l0-32l-64 0l0-160l96 0c18 0 32 14 32 32l0 288c0 17-14 32-32 32m-157-146l-262 131c-4 3-8 3-12 3c-10 0-17-7-17-20l0-288c0-18 13-39 29-47l262-131c4-2 8-3 12-3c10 0 17 8 17 21l0 288c0 17-13 38-29 46m-67-206c-18 0-32 21-32 48c0 26 14 48 32 48c18 0 32-22 32-48c0-27-14-48-32-48"/>
<glyph unicode="&#57587;" d="m416 352l0-32l64 0l0-288l-160 0l0 96l-128 0l0-96l-160 0l0 288l64 0l0 32l-96 0l0-352l512 0l0 352z m-288-32l0-32l256 0l0 224l-256 0z m96 160l0-64l64 0l0 64l32 0l0-160l-32 0l0 64l-64 0l0-64l-32 0l0 160z m-160-256l96 0l0-64l-96 0z m0-96l96 0l0-64l-96 0z m288 96l96 0l0-64l-96 0z m0-96l96 0l0-64l-96 0z m-160 96l128 0l0-64l-128 0z"/>
<glyph unicode="&#57588;" d="m356 380l-68-40c-15-8-40-23-55-32l-44-26l0 78c0 9-8 16-16 16l-30 0c-9 0-16-7-16-16l0-215c0-9 7-16 16-16l30 0c8 0 16 7 16 16l0 77l44-26c15-8 40-23 55-32l68-40c16-8 28-1 28 16l0 224c0 18-12 25-28 16"/>
<glyph unicode="&#57589;" d="m448 384l-256 0l0 32l48 0c27 0 48 21 48 48c0 26-21 48-48 48l-80 0c-18 0-32-14-32-32l0-96l-96 0c-18 0-32-14-32-32l0-192c0-18 14-32 32-32l160 0l0-128l128 0l0 128l128 0c18 0 32 14 32 32l0 192c0 18-14 32-32 32m-192-352l-32 0l0 96l32 0z m192 128l-416 0l0 192l96 0l0-96c0-18 14-32 32-32c18 0 32 14 32 32l0 96l256 0z"/>
<glyph unicode="&#57590;" d="m151 40l252 216l-252 216l-42-48l196-168l-196-168z"/>
<glyph unicode="&#57591;" d="m399 303l-137 84l87 72l137-85z m-51-159l132 78l-80 67l-129-78z m-107 67l-129 78l-80-67l132-78z m-123-56l0-25l132-81l0 154l-87-72z m276 0l-45-24l-87 72l0-154l132 81z m-144 232l-86 72l-138-85l87-71z"/>
<glyph unicode="&#57592;" d="m403 476c-33-11-81-41-106-66l-136-136c-12-12-12-32 0-45l68-68c13-12 33-12 45 0l136 136c25 25 55 73 66 106l36 109z m-95-236c-18-18-49-18-67 0c-19 19-19 50 0 68c18 19 49 19 67 0c19-18 19-49 0-68m91 91c-19-19-49-19-68 0c-19 19-19 49 0 68c19 19 49 19 68 0c19-19 19-49 0-68m-328-102l113 113c-25 25-66 25-91 0l-67-68c-13-12-13-32 0-45c12-12 32-12 45 0m158-158c-12-13-12-33 0-45c13-13 33-13 45 0l68 67c25 25 25 66 0 91z m-102 124c-6-6-6-16 0-22l46-46c6-6 16-6 22 0l12 12l-68 67z m-127-195c64 32 160 96 128 128c-32 32-96-64-128-128"/>
<glyph unicode="&#57593;" d="m448 448l-384 0c-35 0-64-29-64-64l0-256c0-35 29-64 64-64l384 0c35 0 64 29 64 64l0 256c0 35-29 64-64 64m32-320c0-18-14-32-32-32l-384 0c-18 0-32 14-32 32l0 160l448 0z m0 224l-448 0l0 32c0 18 14 32 32 32l384 0c18 0 32-14 32-32z m-416-96l192 0l0-32l-192 0z m0-64l64 0l0-32l-64 0z m288 64l96 0l0-64l-96 0z"/>
<glyph unicode="&#57594;" d="m22 144l62-19l140 35l-182 58c-10 3-21 1-29-5c-8-6-13-15-13-26l0-13c0-13 9-26 22-30m468-66l-5 1l-142-35l127-40c10-3 21-1 29 5c8 6 13 15 13 25l0 13c0 14-9 27-22 31m10 105c-6 5-13 7-20 7l-8-1l-448-112c-14-3-24-16-24-31l0-14c0-10 5-19 12-25c6-5 13-7 20-7l8 1l448 112c14 4 24 16 24 31l0 14c0 10-5 19-12 25m-324 73c27-61 129-97 180-22c51 75 7 195-84 278c15-86-157-121-96-256m54 32c14 14 49 33 53 97c76-51 43-173-14-163c-57 10-53 51-39 66"/>
<glyph unicode="&#57595;" d="m511 269c-7 135-118 243-255 243c-121 0-223-84-249-198c-4-18-7-38-7-58c0-10 1-19 2-28c14-128 122-228 254-228c109 0 202 69 239 165c11 28 17 59 17 91c0 4 0 9-1 13m-367-45c-27 0-48 21-48 48c0 26 21 48 48 48c27 0 48-22 48-48c0-27-21-48-48-48m331-14c-29-41-67-61-104-61c-47 0-99 36-99 116c0 97-66 148-131 148c-18 0-37-4-55-11c41 48 102 78 170 78c124 0 224-101 224-224c0-16-2-31-5-46m-107 78c-26 0-48-22-48-48c0-27 22-48 48-48c26 0 48 21 48 48c0 26-22 48-48 48"/>
<glyph unicode="&#57597;" d="m256 512c-141 0-256-115-256-256c0-141 115-256 256-256c141 0 256 115 256 256c0 141-115 256-256 256m0-480c-123 0-224 100-224 224c0 123 101 224 224 224c123 0 224-101 224-224c0-124-101-224-224-224m-32 304c0 26-14 48-32 48c-18 0-32-22-32-48c0-27 14-48 32-48c18 0 32 21 32 48m96 48c-18 0-32-22-32-48c0-27 14-48 32-48c18 0 32 21 32 48c0 26-14 48-32 48m-64-160c-35 0-64-29-64-64c0-35 29-64 64-64c35 0 64 29 64 64c0 35-29 64-64 64"/>
<glyph unicode="&#57598;" d="m256 512c-141 0-256-115-256-256c0-141 115-256 256-256c141 0 256 115 256 256c0 141-115 256-256 256m0-480c-123 0-224 100-224 224c0 123 101 224 224 224c123 0 224-101 224-224c0-124-101-224-224-224m0 192c-81 0-113-38-160-96l4 0c40 39 95 64 156 64c61 0 116-25 157-64l3 0c-47 58-79 96-160 96m-64 64c18 0 32 21 32 48c0 26-14 48-32 48c-18 0-32-22-32-48c0-27 14-48 32-48m128 0c18 0 32 21 32 48c0 26-14 48-32 48c-18 0-32-22-32-48c0-27 14-48 32-48"/>
<glyph unicode="&#57600;" d="m480 384l-177 0l70 70c6 6 6 16 0 22c-7 7-17 7-23 0l-92-92l-19 0l-93 92c-6 7-16 7-22 0c-6-6-6-16 0-22l70-70l-162 0c-18 0-32-14-32-32l0-288c0-18 14-32 32-32l448 0c18 0 32 14 32 32l0 288c0 18-14 32-32 32m-128-288l-288 0l0 224l288 0z m96 96l-32 0l0 32l32 0z m0 64l-32 0l0 32l32 0z"/>
<glyph unicode="&#57601;" d="m32 480c-18 0-32-14-32-32l0-128c0-18 14-32 32-32l288 0l64 192z m256-96l-32 0l0 32l32 0z m128 64l-38-128l64 0l38 128z m-256-192l0-160l-96 0c0 18-14 32-32 32c-18 0-32-14-32-32l0-64c0-18 14-32 32-32c18 0 32 14 32 32l160 0l0 224z"/>
<glyph unicode="&#57602;" d="m224 352c-168 64-224-32-224-128c0-96 113-224 160-224c65 0 64 32 64 32c0 0-1-32 64-32c47 0 160 128 160 224c0 96-56 192-224 128m-128-256c-96 128 0 224 0 224l64 0c0 0-64-64-64-224m128 288l-64 128l-64 0l96-128z m160 128c0 0-160 32-160-128c0 0 160 0 160 128"/>
<glyph unicode="&#57603;" d="m256 352c0 80-178 96-256 96l0-352l16 0c6 0 11 0 16 0l0-32c64 0 192 19 192-32l64 0c0 51 128 32 192 32l0 32c5 0 10 0 16 0l16 0l0 352c-78 0-256-16-256-96m-32-238c-47 27-134 30-192 30l0 272c16 0 30-1 44-2l8 0l3 0c63-5 129-18 136-56l1-6z m256 30c-58 0-145-3-192-30l0 238c0 21 34 62 192 64z"/>
<glyph unicode="&#57604;" d="m407 461l27 0l0 51l-370 0l0-51l32 0c4-96 39-159 101-180l0-53c-61-21-96-83-101-177l-32 0l0-51l370 0l0 51l-27 0c-5 94-40 156-101 177l0 53c62 21 97 84 101 180m-116-255c67-17 87-90 91-155l-26 0l-45 52l-57 68l-58-68l-45-52l-29 0c3 65 23 138 90 155l10 2l0 93l-10 2c-69 17-88 92-91 158l261 0c-3-66-22-141-91-158l-10-2l0-93z m17 151l-105 0l26-31l27-30l26 30z"/>
<glyph unicode="&#57605;" d="m448 512l-384 0c-18 0-32-14-32-32l0-64l48 0c9 0 16-7 16-16c0-9-7-16-16-16l-64 0c-9 0-16-7-16-16c0-9 7-16 16-16l16 0l0-64l48 0c9 0 16-7 16-16c0-9-7-16-16-16l-64 0c-9 0-16-7-16-16c0-9 7-16 16-16l16 0l0-64l48 0c9 0 16-7 16-16c0-9-7-16-16-16l-64 0c-9 0-16-7-16-16c0-9 7-16 16-16l16 0l0-64c0-18 14-32 32-32l384 0c18 0 32 14 32 32l0 448c0 18-14 32-32 32m-64-224l-192 0l0 128l192 0z"/>
<glyph unicode="&#57606;" d="m352 288l-352 0l0-64l352 0l0-96l160 128l-160 128z"/>
<glyph unicode="&#57608;" d="m96 448l211 0l109-109l0-275l-320 0z m-64 64l0-512l448 0l0 365l-147 147z m144-253c26 0 48 22 48 48c0 27-22 48-48 48c-26 0-48-21-48-48c0-26 22-48 48-48m16-64l-64-96l256 0l-64 224l-64-192z"/>
<glyph unicode="&#57609;" d="m496 352l-16 0l0-96l16 0c9 0 16 7 16 16l0 64c0 9-7 16-16 16m-144 128l-192 0c-53 0-96-43-96-96l0-288c0-18 14-32 32-32l0-32c0-18 14-32 32-32l32 0c18 0 32 14 32 32l0 32l128 0l0-32c0-18 14-32 32-32l32 0c18 0 32 14 32 32l0 32c18 0 32 14 32 32l0 288c0 53-43 96-96 96m-160-32l128 0l0-32l-128 0z m-64-352c-18 0-32 14-32 32c0 18 14 32 32 32c18 0 32-14 32-32c0-18-14-32-32-32m256 0c-18 0-32 14-32 32c0 18 14 32 32 32c18 0 32-14 32-32c0-18-14-32-32-32m32 96l-320 0l0 192l320 0z m-416 144l0-64c0-9 7-16 16-16l16 0l0 96l-16 0c-9 0-16-7-16-16"/>
<glyph unicode="&#57611;" d="m256 512c-141 0-256-115-256-256c0-141 115-256 256-256c141 0 256 115 256 256c0 141-115 256-256 256m0-480c-123 0-224 100-224 224c0 123 101 224 224 224c123 0 224-101 224-224c0-124-101-224-224-224m-64 256c18 0 32 21 32 48c0 26-14 48-32 48c-18 0-32-22-32-48c0-27 14-48 32-48m64-128c-53 0-99 26-128 65l0-1c0-71 57-128 128-128c71 0 128 57 128 128l0 1c-29-39-75-65-128-65m32 192l96 0l0-32l-96 0z"/>
<glyph unicode="&#57612;" d="m448 352l-32 0l0-32c0-49-47-96-96-96l-147 0l-45-45l0-19c0-32 32-64 64-64l160 0l96-96l0 96c32 0 64 32 64 64l0 128c0 32-32 64-64 64m-288-96l160 0c32 0 64 32 64 64l0 128c0 32-32 64-64 64l-256 0c-32 0-64-32-64-64l0-128c0-32 32-64 64-64l0-96z"/>
<glyph unicode="&#57613;" d="m486 461c-20 20-46-5-46-5c0 0-126-126-151-152c-26-25-98-54-98-54l83-83c0 0 31 70 56 96c25 25 152 151 152 151c0 0 25 26 4 47m-389-294c-39-92-32-144-97-160c249-43 249 135 249 135l-83 83c0 0-50-13-69-58m-24-133c19 22 48 128 87 154c27-18-1-102-87-154"/>
<glyph unicode="&#57614;" d="m160 160l160 0l0 128l96 0l0-256l-256 0z m-160 320l0-320l128 0l0-160l320 0l0 320l-128 0l0 160z"/>
<glyph unicode="&#57615;" d="m497 282l-113-45l0 51c0 18-14 32-32 32l-320 0c-18 0-32-14-32-32l0-192c0-18 14-32 32-32l320 0c18 0 32 14 32 32l0 51l113-45c8-3 15 1 15 10l0 160c0 9-7 13-15 10m-241-154l-32 0l0 32l32 0z m64 0l-32 0l0 32l32 0z m0 96l-256 0l0 32l256 0z m-64 147l0-19l64 0l0 45l-51 51l-237 0l0-64l211 0z"/>
<glyph unicode="&#57616;" d="m64 320l352 0l0-160l-352 0z m-64 64l0-288l480 0l0 64l32 0l0 128l-32 0l0 96z"/>
</font>
</defs>
</svg>
